Всегда рабочее зеркало без VPN и Proxy просто перед .vidak.icu напиши любое слово или цифру, Пример http://1t0y.vidak.icu

MVO

2 сезон

1 сезон

1

1 сезон

iTunes

2 сезон

13

1 сезон

Распродажа

pack

Рекомендуем

Пиратка

30

ВАЖНО

RePack

MK11

RePack

jed

RePack

fifa19

RePack

RDR2

RePack

NEED FOR SPEED™ PAYBACK

Кинопоиск HD

6 сезон

 Острые козырьки 6 сезон

Все сериалы

все сериалы на PB.wtf

RePack

FAR CRY 5

Anonymous, нам критически не хватает 5601 руб. на оплату серверов и переферии за Апрель, помоги нам пожалуйста, вся надежда только на тебя. В благодарность мы отключим тебе всю рекламу на сайте!

×
  
Magnet ссылка

Аллея кошмаров / Nightmare Alley (Эдмунд Гулдинг) [1947, драма, фильм-нуар, BDRip-AVC] [Criterion Collection] [MVO] piratbit.org

Аллея кошмаров через торрент piratbit.org

Размер: 2.36 GB | Добавлен: 4 мес. 2 д. назад | Торрент скачан:12 раз
Смотреть онлайн Аллея кошмаров | Скачать    Ребята, помогите собрать деньги на оплату серверов!!!

20-01-2022 15:47 Аллея кошмаров Скачать торрент  

Аллея кошмаров / Nightmare Alley
Год выпуска: 1947
Страна: США
Студия: Twentieth Century Fox
Жанр: драма, фильм-нуар
Продолжительность: 01:51:39
Перевод: Профессиональный (многоголосый закадровый)
Субтитры: английские SDH

Режиссер: Эдмунд Гулдинг / Edmund Goulding

В ролях: Тайрон Пауэр, Джоан Блонделл, Колин Грэй, Хелен Уокер, Тейлор Холмс, Майк Мазурки, Иэн Кит, Флоренс Ауэр, Джордж Беранджер, Оливер Блейк, Джон Болейн, Джеймс Бёрк, Джордж Чандлер, Гарри Чешир, Клэнси Купер, Эдвард Кларк, Джордж Дэвис, Джулия Дин, Сейр Диаринг

О фильме: Стэн Карлайл работал фокусником, «читавшим» чужие мысли на ярмарках и в передвижном цирке. Вскоре это перестало его удовлетворять, и он с помощью психиатра начал убеждать состоятельных людей, что способен входить в контакт с их умершими родственниками. Стареющий миллионер Гриндл, жаждущий пообщаться с покойной дочерью, обращается к Карлайлу... В основу фильма положен одноимённый роман Уильяма Линзи Грэшема.

rating

Качество: BDRip-AVC
Формат: MKV
Видео: MPEG-4 AVC, 2642 Кбит/с, 790x576, 23.976 кадр/с
Аудио 1: русский, AC3, 192 kbps, 2 ch, 48 kHz [закадровый многоголосый]
Аудио 2: английский, AC3, 192 kbps, 1 ch, 48 kHz [оригинал]
Субтитры: английские (SRT)
---[Information] [25.05.2021 2:55:40] avs [info]: 790x576p 1:1 @ 24000/1001 fps (cfr)
---[Information] [25.05.2021 2:55:40] x264 [info]: using SAR=1/1
---[Information] [25.05.2021 2:55:40] x264 [info]: using cpu capabilities: MMX2 SSE2Fast SSSE3 SSE4.2 AVX
---[Information] [25.05.2021 2:55:40] x264 [info]: profile High, level 4.1, 4:2:0, 8-bit
---[Information] [25.05.2021 7:08:21] x264 [info]: frame I:915 Avg QP:16.27 size: 52233
---[Information] [25.05.2021 7:08:21] x264 [info]: frame P:31704 Avg QP:18.00 size: 26657
---[Information] [25.05.2021 7:08:21] x264 [info]: frame B:128016 Avg QP:20.04 size: 10311
---[Information] [25.05.2021 7:08:21] x264 [info]: consecutive B-frames: 0.9% 0.8% 4.3% 18.5% 17.4% 52.2% 4.0% 1.1% 0.7%
---[Information] [25.05.2021 7:08:21] x264 [info]: mb I I16..4: 2.2% 83.8% 13.9%
---[Information] [25.05.2021 7:08:21] x264 [info]: mb P I16..4: 0.3% 12.3% 1.2% P16..4: 36.2% 32.1% 16.9% 0.0% 0.0% skip: 1.0%
---[Information] [25.05.2021 7:08:21] x264 [info]: mb B I16..4: 0.0% 1.3% 0.1% B16..8: 41.2% 15.0% 4.5% direct: 7.6% skip:30.4% L0:45.5% L1:41.9% BI:12.5%
---[Information] [25.05.2021 7:08:21] x264 [info]: 8x8 transform intra:89.1% inter:57.1%
---[Information] [25.05.2021 7:08:21] x264 [info]: coded y,uvDC,uvAC intra: 96.2% 0.0% 0.0% inter: 34.9% 0.0% 0.0%
---[Information] [25.05.2021 7:08:21] x264 [info]: i16 v,h,dc,p: 51% 12% 16% 21%
---[Information] [25.05.2021 7:08:21] x264 [info]: i8 v,h,dc,ddl,ddr,vr,hd,vl,hu: 11% 10% 11% 9% 12% 13% 11% 12% 11%
---[Information] [25.05.2021 7:08:21] x264 [info]: i4 v,h,dc,ddl,ddr,vr,hd,vl,hu: 10% 9% 3% 9% 16% 17% 13% 12% 11%
---[Information] [25.05.2021 7:08:21] x264 [info]: i8c dc,h,v,p: 100% 0% 0% 0%
---[Information] [25.05.2021 7:08:21] x264 [info]: Weighted P-Frames: Y:14.7% UV:0.0%
---[Information] [25.05.2021 7:08:21] x264 [info]: ref P L0: 37.3% 10.8% 16.8% 6.6% 6.2% 4.1% 4.2% 2.0% 2.2% 1.7% 1.8% 1.4% 1.5% 1.2% 1.4% 0.8%
---[Information] [25.05.2021 7:08:21] x264 [info]: ref B L0: 67.8% 11.2% 5.7% 3.3% 2.4% 2.1% 1.7% 1.1% 0.9% 0.9% 0.8% 0.8% 0.7% 0.5% 0.2%
---[Information] [25.05.2021 7:08:21] x264 [info]: ref B L1: 94.9% 5.1%
---[Information] [25.05.2021 7:08:21] x264 [info]: kb/s:2642.29
---[Information] [25.05.2021 7:08:21] encoded 160635 frames, 10.59 fps, 2642.29 kb/s

Общее
Уникальный идентификатор : 61406201995972910597005223053619234194 (0x2E3267817BCFD2A55A12ED3AEC920592)
Полное имя : D:\Video\Аллея кошмаров.1947.BDRip-AVC msltel.mkv
Формат : Matroska
Версия формата : Version 4
Размер файла : 2,36 Гбайт
Продолжительность : 1 ч. 51 м.
Общий поток : 3 028 Кбит/сек
Название фильма : Аллея кошмаров.1947.BDRip-AVC msltel
Дата кодирования : UTC 2021-05-25 01:12:05
Программа кодирования : mkvmerge v44.0.0 ('Domino') 64-bit
Библиотека кодирования : libebml v1.3.10 + libmatroska v1.5.2

Видео
Идентификатор : 1
Формат : AVC
Формат/Информация : Advanced Video Codec
Профиль формата : High@L4.1
Настройки формата : CABAC / 16 Ref Frames
Параметр CABAC формата : Да
Параметр RefFrames формата : 16 кадров
Идентификатор кодека : V_MPEG4/ISO/AVC
Продолжительность : 1 ч. 51 м.
Битрейт : 2 642 Кбит/сек
Ширина : 790 пикселей
Высота : 576 пикселей
Соотношение сторон : 1,372
Режим частоты кадров : Постоянный
Частота кадров : 23,976 (24000/1001) кадра/сек
Цветовое пространство : YUV
Субдискретизация насыщенности : 4:2:0
Битовая глубина : 8 бит
Тип развёртки : Прогрессивная
Бит/(Пиксели*Кадры) : 0.242
Размер потока : 2,06 Гбайт (87%)
Библиотека кодирования : x264 core 161 r3018 db0d417
Настройки программы : cabac=1 / ref=16 / deblock=1:-3:-3 / analyse=0x3:0x113 / me=umh / subme=10 / psy=1 / psy_rd=1.00:0.00 / mixed_ref=1 / me_range=32 / chroma_me=1 / trellis=2 / 8x8dct=1 / cqm=0 / deadzone=21,11 / fast_pskip=0 / chroma_qp_offset=-2 / threads=12 / lookahead_threads=2 / sliced_threads=0 / nr=0 / decimate=0 / interlaced=0 / bluray_compat=0 / constrained_intra=0 / bframes=8 / b_pyramid=2 / b_adapt=2 / b_bias=0 / direct=1 / weightb=1 / open_gop=0 / weightp=2 / keyint=230 / keyint_min=23 / scenecut=40 / intra_refresh=0 / rc_lookahead=40 / rc=crf / mbtree=0 / crf=18.0 / qcomp=0.60 / qpmin=0 / qpmax=69 / qpstep=4 / vbv_maxrate=50000 / vbv_bufsize=62500 / crf_max=0.0 / nal_hrd=none / filler=0 / ip_ratio=1.40 / pb_ratio=1.30 / aq=3:1.00
Язык : English
Default : Да
Forced : Нет

Аудио #1
Идентификатор : 2
Формат : AC-3
Формат/Информация : Audio Coding 3
Коммерческое название : Dolby Digital
Идентификатор кодека : A_AC3
Продолжительность : 1 ч. 51 м.
Вид битрейта : Постоянный
Битрейт : 192 Кбит/сек
Каналы : 2 канала
Channel layout : L R
Частота : 48,0 КГц
Частота кадров : 31,250 кадров/сек (1536 SPF)
Метод сжатия : С потерями
Размер потока : 153 Мбайт (6%)
Заголовок : MVO
Язык : Russian
Service kind : Complete Main
Default : Да
Forced : Нет

Аудио #2
Идентификатор : 3
Формат : AC-3
Формат/Информация : Audio Coding 3
Коммерческое название : Dolby Digital
Идентификатор кодека : A_AC3
Продолжительность : 1 ч. 51 м.
Вид битрейта : Постоянный
Битрейт : 192 Кбит/сек
Каналы : 1 канал
Channel layout : C
Частота : 48,0 КГц
Частота кадров : 31,250 кадров/сек (1536 SPF)
Метод сжатия : С потерями
Размер потока : 153 Мбайт (6%)
Заголовок : original
Язык : English
Service kind : Complete Main
Default : Нет
Forced : Нет

Текст
Идентификатор : 4
Формат : UTF-8
Идентификатор кодека : S_TEXT/UTF8
Идентификатор кодека/Информация : UTF-8 Plain Text
Продолжительность : 1 ч. 49 м.
Битрейт : 81 бит/сек
Count of elements : 1627
Размер потока : 65,6 Кбайт (0%)
Заголовок : английские
Язык : English
Default : Нет
Forced : Нет

Меню
00:00:00.000 : en:01
00:10:18.618 : en:02
00:20:32.440 : en:03
00:28:49.937 : en:04
00:31:55.539 : en:05
00:42:40.433 : en:06
00:48:23.109 : en:07
00:52:40.157 : en:08
00:59:57.219 : en:09
01:08:05.707 : en:10
01:13:32.408 : en:11
01:17:47.872 : en:12
01:24:41.076 : en:13
01:30:33.386 : en:14
01:40:05.625 : en:15
01:44:33.684 : en:16
скриншот  скриншот  скриншот  
piratbit.org



Скачать Аллея кошмаров через торрент https://c.radikal.ru/c36/2105/b5/b375ed89d4a9.png Скачать, смотреть онлайн Аллея кошмаров бесплантно в хорошем качестве О фильме: Стэн Карлайл работал фокусником, «читавшим» чужие мысли на ярмарках и в передвижном цирке. Вскоре это перестало его ... 10 10 2
Торрент: Зарегистрирован [2022-01-20 15:47] · скачан: 12 раз
Статус: √ проверено
Размер: 2.36 GB
Как cкачать? Как скачать Аллея кошмаров через торрент | UTorrent

% Раздел Тема Автор DL S | L
Фильмы [HD 720p, 1080p] (Хороший звук DUB, MVO) [ 14.99 GB ] Аллея кошмаров / Nightmare Alley [2021 BDRip 1080p] 2xMVO [HDRezka Studio Jaskier] +AVO [М. Чадов] bober100 Скачать
2 | 0
Фильмы [HD 720p, 1080p] (Хороший звук DUB, MVO) [ 8.7 GB ] Аллея кошмаров / Nightmare Alley [2021 BDRip 720p] 2xMVO [HDRezka Studio Jaskier] +AVO [М. Чадов] bober100 Скачать
2 | 0
Фильмы [HD 720p, 1080p] (Хороший звук DUB, MVO) [ 15.07 GB ] Аллея кошмаров / Nightmare Alley [2021 BDRip 1080p] 2xMVO [HDRezka Studio Jaskier] +DUB [Line] bober100 Скачать
6 | 0
Фильмы 2021 [DVDrip, WEB-DLRip, HDrip] (DUB, MVO) [ 2.18 GB ] Аллея кошмаров / Nightmare Alley [2021 WEB-DLRip] MVO [HDRezka Studio] bober100 Скачать
6 | 0
Фильмы 2021 [DVDrip, WEB-DLRip, HDrip] (DUB, MVO) [ 1.46 GB ] Аллея кошмаров / Nightmare Alley [2021 WEB-DLRip] MVO [HDRezka Studio] bober100 Скачать
2 | 0
Фильмы 2021 [DVDrip, WEB-DLRip, HDrip] (DUB, MVO) [ 3.02 GB ] Аллея кошмаров / Nightmare Alley [2021 WEB-DLRip-AVC] MVO [Jaskier] от ExKinoRay Lithuania Скачать
4 | 0
Фильмы (WEB-DL 720p, 1080p) [ 2.57 GB ] Аллея кошмаров / Nightmare Alley [2021 WEB-DLRip 1080p] [MVO] killermax2013 Скачать
2 | 0

28-11-2019 20:33  

Отключить всю рекламу на сайте

    Дорогой пользователь! Огромная просьба, поблагодарите релизера, оцените раздачу и оставьте свои комментарий, если Вы скачали Аллея кошмаров через торрент бесплатно!
    Комментировать посты могут только пользователи прошедшие не сложную регистрацию
    Показать сообщения:    

    Аллея кошмаров через торрент
    Скачать бесплатно Аллея кошмаров
    Аллея кошмаров скачать торрент
    Аллея кошмаров смотреть онлайн
    Cкачать фильм Аллея кошмаров бесплатно
    Аллея кошмаров скачать торрент в хорошем качестве
    Аллея кошмаров смотреть онлайн бесплатно в хорошем качестве


    Вы не можете начинать темы
    Вы не можете отвечать на сообщения
    Вы не можете редактировать свои сообщения
    Вы не можете удалять свои сообщения
    Вы не можете голосовать в опросах
    Вы не можете прикреплять файлы к сообщениям
    Вы можете скачивать файлы