Лицензия

MVO

1

1 сезон

Лицензия

Лицензия

13

MVO

1 сезон

Deluxe Edition

pack

Рекомендуем

30

Repack

ВАЖНО

ВАЖНО

Ghostwire

RePack

jed

RePack

fifa19

RePack

RDR2

RePack

NEED FOR SPEED™ PAYBACK

RePack

Кинопоиск HD

 Острые козырьки 6 сезон

6 сезон

FAR CRY 6

RePack

Лицензия

MVO

1

1 сезон

1 сезон

Лицензия

  

Неподсуден (Владимир Краснопольский, Валерий Усков) [1969 г., драма, социальная драма, мелодрама, экранизация, SATRip-AVC]

Неподсуден через торрент piratbit.org

Размер: 1.24 GB | Добавлен: 7 мес. назад | Торрент скачан:16 раз
Смотреть онлайн Неподсуден | Скачать   

09-02-2022 16:59 Неподсуден Скачать торрент  

Неподсуден

Год выпуска: 1969 (Премьера 25 августа 1969)
Страна: СССР | Мосфильм
Жанр: драма, социальная драма, мелодрама, экранизация
Продолжительность: 01:22:21
Перевод: не требуется

Режиссер: Владимир Краснопольский, Валерий Усков

В ролях: Олег Стриженов, Людмила Максакова, Леонид Куравлёв, Ольга Сошникова, Светлана Светличная, Пётр Глебов, Сергей Никоненко, Владимир Гусев (I), Володя Кузнецов (II), Николай Лиров, Нина Агапова, Юрий Мартынов, Николай Сморчков, Александр Матковский, Валентина Владимирова, Алексей Смирнов (I), Ольга Науменко, Станислав Михин, Александр Милютин, Людмила Давыдова (I), Олеся Иванова, Иван Савкин, Валерий Усков, Елена Муратова

Описание: Экранизация рассказа Льва Ющенко «Командир».
В тренировочном полёте терпит катастрофу учебный реактивный самолёт Ил-28П. Радист Сорокин, без приказа покидает горящую машину, приземляется первым и пишет донос на лётчика Егорова. Из-за поступка Сорокина самолёт остаётся без радиосвязи, что приводит к гибели командира экипажа Цыганка. И хотя Егоров неподсуден — его слова, что он прыгнул в последний момент по приказу командира, невозможно ни подтвердить, ни опровергнуть — он увольняется с курсов переподготовки пилотов ГВФ, расстаётся с мечтой о пилотировании реактивных лайнеров и уходит в малую авиацию. На его решение влияет и то, что его бросила любимая девушка Надя, поверившая клевете. Вскоре был вынужден уйти с курсов и Сорокин: он тоже неподсуден — нет прямых доказательств; но и начальство, и большинство пилотов уверены в его вине.
С тех пор прошло шестнадцать лет. Надя замужем за Сорокиным, воспитывает с ним сына, который не знает, кто его настоящий отец. Однажды вся семья оказывается в самолёте, которым управляет Егоров.

Доп. инфо:
* Один из лидеров кинопроката 1970 года (4 место — 43,3 млн. зрителей).
* Занимает по посещаемости 68-е место среди отечественных фильмов за всю историю советского кинопроката
* По итогам опроса читателей журнала «Советский экран» Олег Стриженов был признан лучшим актёром 1969 года за главную роль командира Егорова.
* Некоторые кадры фильма сняты в аэропорту Домодедово.


rating

Файл
Формат: MKV
Кодек: x264
Качество: SATRip-AVC (DVB)
Видео: MPEG-4 AVC, 716x456@1043x456, 25.000 fps, 1990 kbps, 0.244 bit/pixel
Аудио: Русский, AC3, 2 chnls, 160 kbps
x264 [info]: frame I:620 Avg QP:17.87 size: 36237
x264 [info]: frame P:25368 Avg QP:18.68 size: 20405
x264 [info]: frame B:97561 Avg QP:19.24 size: 7065
x264 [info]: consecutive B-frames: 1.2% 2.1% 5.5% 16.2% 22.0% 42.9% 6.2% 1.5% 1.2% 0.7% 0.2% 0.1% 0.0% 0.1% 0.0%
Format : Matroska
Format version : Version 4
File size : 1.24 GiB
Duration : 1 h 22 min
Overall bit rate : 2 153 kb/s
Movie name : Неподсуден (1969) - Rip by -{am}-
Encoded date : UTC 2021-11-27 14:26:02
Writing application : mkvmerge v7.2.0 ('On Every Street') 32bit built on Sep 13 2014 15:42:11
Writing library : libebml v1.3.0 + libmatroska v1.4.1
Attachments : poster.png

Video
ID : 1
Format : AVC
Format/Info : Advanced Video Codec
Format profile : High@L4.1
Format settings : CABAC / 16 Ref Frames
Format settings, CABAC : Yes
Format settings, Reference : 16 frames
Codec ID : V_MPEG4/ISO/AVC
Duration : 1 h 22 min
Bit rate : 1 990 kb/s
Width : 716 pixels
Height : 456 pixels
Display aspect ratio : 2.25:1
Frame rate mode : Constant
Frame rate : 25.000 FPS
Color space : YUV
Chroma subsampling : 4:2:0
Bit depth : 8 bits
Scan type : Progressive
Bits/(Pixel*Frame) : 0.244
Stream size : 1.14 GiB (92%)
Title : Nepodsuden.1969.{am}.1043.Rus
Writing library : x264 core 164 r3075+55M 97d28bb t_mod_New [(8 & 10)-bit@all X86_64]
Encoding settings : cabac=1 / ref=16 / deblock=1:-3:-2 / analyse=0x3:0x133 / me=umh / subme=11 / psy=1 / fade_compensate=0.00 / psy_rd=1.07:0.20 / mixed_ref=1 / me_range=48 / chroma_me=1 / trellis=2 / 8x8dct=1 / cqm=2 / deadzone=21,11 / fast_pskip=0 / chroma_qp_offset=-3 / threads=14 / lookahead_threads=3 / sliced_threads=0 / nr=0 / decimate=0 / interlaced=0 / bluray_compat=0 / constrained_intra=0 / fgo=0 / bframes=14 / b_pyramid=2 / b_adapt=2 / b_bias=0 / direct=3 / weightb=1 / open_gop=0 / weightp=2 / keyint=250 / keyint_min=25 / scenecut=40 / intra_refresh=0 / rc_lookahead=40 / rc=crf / mbtree=0 / crf=18.9000 / qcomp=0.60 / qpmin=0:0:0 / qpmax=30:30:30 / qpstep=4 / vbv_maxrate=62500 / vbv_bufsize=78125 / crf_max=30.0 / nal_hrd=none / filler=0 / ip_ratio=1.25 / pb_ratio=1.30 / aq=3:1.00 / aq-sensitivity=10.00 / aq-factor=1.00:1.00:1.00 / aq2=0 / aq3=0
Language : Russian
Default : Yes
Forced : No
Color range : Limited
Color primaries : BT.601 PAL
Transfer characteristics : BT.470 System B/G
Matrix coefficients : BT.470 System B/G

Audio
ID : 2
Format : AC-3
Format/Info : Audio Coding 3
Commercial name : Dolby Digital
Codec ID : A_AC3
Duration : 1 h 22 min
Bit rate mode : Constant
Bit rate : 160 kb/s
Channel(s) : 2 channels
Channel layout : L R
Sampling rate : 48.0 kHz
Frame rate : 31.250 FPS (1536 SPF)
Compression mode : Lossy
Stream size : 94.3 MiB (7%)
Title : Original
Language : Russian
Service kind : Complete Main
Default : Yes
Forced : No
скриншот  скриншот  скриншот  

скриншот  скриншот  скриншот  



Скачать Неподсуден через торрент https://d.radikal.ru/d09/2202/16/d756911b29dd.jpg Скачать, смотреть онлайн Неподсуден бесплантно в хорошем качестве Описание: Экранизация рассказа Льва Ющенко «Командир».В тренировочном полёте терпит катастрофу учебный реактивный самолёт Ил-28П. Радист ... 5 10 1
Info! Золотая раздача, скачанное не засчитывается.
Торрент: Зарегистрирован [2022-02-09 16:59] · скачан: 16 раз
Статус: √ проверено
Размер: 1.24 GB
Как cкачать? Как скачать Неподсуден через торрент | UTorrent

28-11-2019 20:33  

Отключить вcю реклaмy на сайте

    Дорогой пользователь! Огромная просьба, поблагодарите релизера, оцените раздачу и оставьте свои комментарий, если Вы скачали Неподсуден через торрент бесплатно!!
    Комментировать посты могут только пользователи прошедшие не сложную регистрацию
    Показать сообщения:    


    Неподсуден через торрент
    Скачать бесплатно Неподсуден
    Неподсуден скачать торрент
    Неподсуден смотреть онлайн
    Cкачать фильм Неподсуден бесплатно
    Неподсуден скачать торрент в хорошем качестве
    Неподсуден смотреть онлайн бесплатно в хорошем качестве
    Вы не можете начинать темы
    Вы не можете отвечать на сообщения
    Вы не можете редактировать свои сообщения
    Вы не можете удалять свои сообщения
    Вы не можете голосовать в опросах
    Вы не можете прикреплять файлы к сообщениям
    Вы можете скачивать файлы