Достать ножи: Стеклянная луковица

MVO

Добыча

Дубляж

Уэнсдэй

1 сезон

Тор

Дубляж

13 клиническая

1 сезон

Жестокая ночь

MVO

Одни из нас

1 сезон

Deluxe

pack

Рекомендуем

30

Пиратка

ВАЖНО

ВАЖНО

Ghostwire

Пиратка

jed

RePack

nioh2

RePack

RDR2

RePack

NEED FOR SPEED™ PAYBACK

RePack

скачать торрент

Кинопоиск HD

Острые козырьки 6 сезон

6 сезон

FAR CRY 6

RePack

скачать торрент

Лицензия

скачать торрент

MVO

1

1 сезон

скачать торрент

1 сезон

скачать торрент

Лицензия

  

Орел и решка. Кино (Вазген Каграманян) [2022, Комедия, приключения, WEB-DL-HEVC 2160p] [КиноПоиск HD]

Орел и решка. Кино через торрент piratbit.org

Раздают: 1 [ 0 KB/s ]
Размер: 7.63 GB | Добавлен: 11 мес. назад | Торрент скачан:99 раз
Смотреть онлайн | Скачать | Поддержите нас   

14-02-2022 00:47 Орел и решка. Кино Скачать торрент  

Орел и решка. Кино
Год выпуска: 2022
Страна: Россия
Студия: ООО «Биг Мама Продакшн»
Жанр: Комедия, приключения
Продолжительность: 01:30:58
Перевод: Не требуется | КиноПоиск HD
Субтитры: Русские (полные)

Режиссер: Вазген Каграманян

rating

В ролях: Александра Бортич, Александр Молочников, Екатерина Варнава, Александр Гудков, Максим Стоянов, Кирилл Каганович, Зара Аршакян, Нана Муштакова, Алим Хоконов, Анвар Азимов, Вадим Цаллати, Грант Каграманян, Андрей Золотарев, Роман Девликамов, Николай Овсянников, Алексей Шраменко

Описание: Программа «Орел и решка» находится на грани закрытия. Ведущие, режиссеры, операторы покинули проект, а те, кто остался, находятся не в лучшей форме. Чтобы избежать краха, продюсеру программы придется пойти на отчаянный шаг: устроить съемки программы в одной из самых закрытых стран мира.

Качество: WEB-DL-HEVC 2160p
Формат: MKV

Видео: MPEG-H HEVC, ~ 11.6 Мбит/с, 3840x1610, 8 бит, 25,000 fps
Аудио: 48 kHz, E-AC3, 5.1, 448 Kbps | Кинопоиск HD | RUS |
скриншот  скриншот  скриншот  скриншот  скриншот  скриншот  

Общее
Уникальный идентификатор : 84552307353637432067458564643947908112 (0x3F9C2E9B7AF1AD6BB08CC309F73D8C10)
Полное имя : D:Orel.i.reshka.Kino.2022.WEB-DL.2160p.ELEKTRI4KA.UNIONGANG.mkv
Формат : Matroska
Версия формата : Version 4
Размер файла : 7,63 Гбайт
Продолжительность : 1 ч. 30 м.
Общий поток : 12,0 Мбит/сек
Название фильма : Orel.i.reshka.Kino.2022.WEB-DL.2160p.ELEKTRI4KA.UNIONGANG
Дата кодирования : UTC 2022-02-13 22:09:29
Программа кодирования : mkvmerge v65.0.0 ('Too Much') 64-bit
Библиотека кодирования : libebml v1.4.2 + libmatroska v1.6.4
Attachments : poster.png

Видео
Идентификатор : 1
Формат : HEVC
Формат/Информация : High Efficiency Video Coding
Профиль формата : Main@L5@Main
Идентификатор кодека : V_MPEGH/ISO/HEVC
Продолжительность : 1 ч. 30 м.
Битрейт : 11,6 Мбит/сек
Ширина : 3 840 пикселей
Высота : 1 610 пикселей
Соотношение сторон : 2,40:1
Режим частоты кадров : Постоянный
Частота кадров : 25,000 кадров/сек
Цветовое пространство : YUV
Субдискретизация насыщенности : 4:2:0
Битовая глубина : 8 бит
Бит/(Пиксели*Кадры) : 0.075
Размер потока : 7,34 Гбайт (96%)
Библиотека кодирования : x265 0.0:[Linux][GCC 7.5.0][64 bit] 8bit+10bit+12bit
Настройки программы : cpuid=1111039 / frame-threads=5 / wpp / no-pmode / no-pme / no-psnr / no-ssim / log-level=2 / input-csp=1 / input-res=3840x1610 / interlace=0 / total-frames=0 / level-idc=0 / high-tier=1 / uhd-bd=0 / ref=2 / no-allow-non-conformance / no-repeat-headers / annexb / no-aud / no-hrd / info / hash=0 / no-temporal-layers / no-open-gop / min-keyint=100 / keyint=100 / gop-lookahead=0 / bframes=4 / b-adapt=2 / b-pyramid / bframe-bias=0 / rc-lookahead=25 / lookahead-slices=4 / scenecut=0 / radl=0 / no-splice / no-intra-refresh / ctu=64 / min-cu-size=8 / rect / no-amp / max-tu-size=32 / tu-inter-depth=1 / tu-intra-depth=1 / limit-tu=0 / rdoq-level=2 / dynamic-rd=0.00 / no-ssim-rd / signhide / no-tskip / nr-intra=0 / nr-inter=0 / no-constrained-intra / strong-intra-smoothing / max-merge=3 / limit-refs=3 / limit-modes / me=3 / subme=3 / merange=57 / temporal-mvp / weightp / no-weightb / no-analyze-src-pics / deblock=0:0 / sao / no-sao-non-deblock / rd=4 / no-early-skip / rskip / no-fast-intra / no-tskip-fast / no-cu-lossless / no-b-intra / no-splitrd-skip / rdpenalty=0 / psy-rd=2.00 / psy-rdoq=0.00 / no-rd-refine / no-lossless / cbqpoffs=0 / crqpoffs=0 / rc=abr / bitrate=11600 / qcomp=0.60 / qpstep=4 / stats-write=0 / stats-read=2 / cplxblur=20.0 / qblur=0.5 / vbv-maxrate=17400 / vbv-bufsize=23200 / vbv-init=0.8 / ipratio=1.40 / pbratio=1.30 / aq-mode=2 / aq-strength=1.00 / cutree / zone-count=0 / no-strict-cbr / qg-size=32 / no-rc-grain / qpmax=69 / qpmin=0 / no-const-vbv / sar=1 / overscan=0 / videoformat=5 / range=0 / colorprim=2 / transfer=2 / colormatrix=2 / chromaloc=0 / display-window=0cll=0,0 / min-luma=0 / max-luma=255 / log2-max-poc-lsb=8 / vui-timing-info / vui-hrd-info / slices=1 / no-opt-qp-pps / no-opt-ref-list-length-pps / no-multi-pass-opt-rps / scenecut-bias=0.05 / no-opt-cu-delta-qp / no-aq-motion / no-hdr / no-hdr-opt / no-dhdr10-opt / no-idr-recovery-sei / analysis-reuse-level=5 / scale-factor=0 / refine-intra=0 / refine-inter=0 / refine-mv=0 / refine-ctu-distortion=0 / no-limit-sao / ctu-info=0 / no-lowpass-dct / refine-analysis-type=0 / copy-pic=1 / max-ausize-factor=1.0 / no-dynamic-refine / no-single-sei / no-hevc-aq / no-svt / no-field / qp-adaptation-range=1.00
Язык : Russian
Default : Да
Forced : Нет
Цветовой диапазон : Limited

Аудио
Идентификатор : 2
Формат : E-AC-3
Формат/Информация : Enhanced AC-3
Коммерческое название : Dolby Digital Plus
Идентификатор кодека : A_EAC3
Продолжительность : 1 ч. 30 м.
Вид битрейта : Постоянный
Битрейт : 448 Кбит/сек
Каналы : 6 каналов
Channel layout : L R C LFE Ls Rs
Частота : 48,0 КГц
Частота кадров : 31,250 кадров/сек (1536 SPF)
Метод сжатия : С потерями
Размер потока : 292 Мбайт (4%)
Заголовок : Original [KinoPoisk HD]
Язык : Russian
Service kind : Complete Main
Default : Да
Forced : Нет

Текст
Идентификатор : 3
Формат : UTF-8
Идентификатор кодека : S_TEXT/UTF8
Идентификатор кодека/Информация : UTF-8 Plain Text
Продолжительность : 1 ч. 28 м.
Битрейт : 107 бит/сек
Count of elements : 1137
Размер потока : 69,2 Кбайт (0%)
Заголовок : Full
Язык : Russian
Default : Нет
Forced : Нет




Скачать Орел и решка. Кино через торрент https://i5-imageban-ru.translate.goog/out/2022/09/04/447060f1af8e7cc591632920546fc28f.webp Скачать, смотреть онлайн Орел и решка. Кино бесплантно в хорошем качестве Описание: Программа «Орел и решка» находится на грани закрытия. Ведущие, режиссеры, операторы покинули проект, а те, кто остался, находятся ... 9.8 10 6
Торрент: Зарегистрирован [2022-02-14 00:47] · скачан: 99 раз
Статус: √ проверено
Размер: 7.63 GB
Как cкачать? Как скачать Орел и решка. Кино через торрент | UTorrent

% Раздел Тема Автор DL S | L
Наши фильмы (HD, WEB-DL 720p, 1080p) [ 4.35 GB ] Орел и решка. Кино | КиноПоиск HD | 1080p bober100 Скачать
2 | 0
Наши новые фильмы 2020 - 2023 [ 1.46 GB ] Орел и решка. Кино | Кинопоиск HD | DLRip bober100 Скачать
2 | 0

28-11-2019 20:33  


Отключить вcю реклaмy на сайте, в т.ч. и в плеере онлайн просмотра!

14-02-2022 08:58 Орел и решка. Кино Скачать торрент  

высер поди?....



14-02-2022 17:12 Орел и решка. Кино Скачать торрент  

бред не реальный! Зря потратили время! с оригинальной программой и даже близко, нет никакого сходства,актеры ТНТ.......ужас и зря потраченное время



    Дорогой пользователь! Огромная просьба, поблагодарите релизера, оцените раздачу и оставьте свои комментарий, если Вы скачали Орел и решка. Кино через торрент бесплатно!!
    Комментировать посты могут только пользователи прошедшие не сложную регистрацию
    Показать сообщения:    


    Орел и решка. Кино через торрент
    Скачать бесплатно Орел и решка. Кино
    Орел и решка. Кино скачать торрент
    Орел и решка. Кино смотреть онлайн
    Cкачать фильм Орел и решка. Кино бесплатно
    Орел и решка. Кино скачать торрент в хорошем качестве
    Орел и решка. Кино смотреть онлайн бесплатно в хорошем качестве
    Вы не можете начинать темы
    Вы не можете отвечать на сообщения
    Вы не можете редактировать свои сообщения
    Вы не можете удалять свои сообщения
    Вы не можете голосовать в опросах
    Вы не можете прикреплять файлы к сообщениям
    Вы можете скачивать файлы
    Орел и решка. Кино [2022, Комедия, приключения, WEB-DL-HEVC 2160p] [КиноПоиск HD] смотреть онлайн, скачать торрент picoco.icu