Всегда рабочее зеркало без VPN и Proxy просто перед .vidak.icu напиши любое слово или цифру, Пример http://ishy.vidak.icu

MVO

2 сезон

2 сезон

1

1 сезон

iTunes

2 сезон

13

1 сезон

Deluxe

pack

Рекомендуем

Пиратка

30

ВАЖНО

RePack

MK11

RePack

jed

RePack

fifa19

RePack

RDR2

RePack

NEED FOR SPEED™ PAYBACK

Кинопоиск HD

6 сезон

 Острые козырьки 6 сезон

Все сериалы

все сериалы на PB.wtf

RePack

FAR CRY 5

Anonymous, нам критически не хватает 5601 руб. на оплату серверов и переферии за Апрель, помоги нам пожалуйста, вся надежда только на тебя. В благодарность мы отключим тебе всю рекламу на сайте!

×
  
Magnet ссылка

Первый встречный / Marry Me (Кэт Койро) [2022, мелодрама, комедия, музыка, HDRip-AVC] DVO [Pazl Voice] от ExKinoRay piratbit.org

Первый встречный через торрент piratbit.org

Раздают: 6 [ 135 KB/s ]
Размер: 2.16 GB | Добавлен: 2 мес. назад | Торрент скачан:115 раз
Смотреть онлайн Первый встречный | Скачать    Ребята, помогите собрать деньги на оплату серверов!!!

15-02-2022 11:36 Первый встречный Скачать торрент  


Первый встречный / Marry Me
Информация о фильме:
Название: Первый встречный
Оригинальное название: Marry Me
Год выхода: 2022
Жанр: мелодрама, комедия, музыка
Режиссер: Кэт Койро
В ролях: Дженнифер Лопес, Оуэн Уилсон, Малума, Джон Брэдли, Хлоя Коулмэн, Сара Силверман, Уткарш Амбудкар, Джимми Фэллон, Мишель Бюто, Брэйди Нун, Жаклин Хонулик, Дэймиэн Валентино, Стивен Уоллем, Алекс Д. Дженнингс, Катрина Каннингэм

Описание: Поп-дива Кэт Вальдез и ее жених Бастиан — самая обсуждаемая пара года, миллионы людей следят за каждым их шагом в прямом эфире. Но за секунду до того, как связать себя узами брака с любимым на глазах у толпы фанатов, Кэт узнает, что он ей изменил. Пока весь ее мир рушится, Кэт встречается взглядами с незнакомцем, простым учителем математики, случайно попавшим на концерт, и принимает самое безумное решение — выйти замуж за него.



Страна: США
Студия: Kung Fu Monkey Productions, Nuyorican Productions, Perfect World (Beijing) Pictures Co, Universal Pictures
Продолжительность: 01:52:05
Перевод: Любительский (двухголосый, закадровый) - Pazl Voice



Информация о файле:
Кодек: AVC
Формат: MKV
Качество: HDRip-AVC
Видео: MPEG-4 AVC, 1024x428, 23.976 fps, 1850 kbps
Аудио RU: AC3, 6 ch, 48 kHz, 448 kbps
Аудио EN: AC3, 6 ch, 48 kHz, 448 kbps
Субтитры: Русские (forced, full), английские

x264 info: frame I:1854 Avg QP:15.77 size: 71359
x264 info: frame P:35924 Avg QP:19.20 size: 20907
x264 info: frame B:123470 Avg QP:20.72 size: 5420
General
Unique ID : 104831988781437192202484935507695499157 (0x4EDDE8190F555786560DB7E80D11F795)
Complete name : D:uTorrentРипы wolf1245Marry Me.2022.DVO.Pazl.x264.HDRip-AVC.[wolf1245.ExKinoRay].mkv
Format : Matroska
Format version : Version 4
File size : 2.16 GiB
Duration : 1 h 52 min
Overall bit rate : 2 764 kb/s
Movie name : Marry Me.2022.DVO.Pazl.x264.HDRip-AVC.[wolf1245.ExKinoRay]
Encoded date : UTC 2022-03-20 07:40:00
Writing application : mkvmerge v66.0.0 ('Josie') 64-bit
Writing library : libebml v1.4.2 + libmatroska v1.6.4
Video
ID : 1
Format : AVC
Format/Info : Advanced Video Codec
Format profile : High@L4.1
Format settings : CABAC / 10 Ref Frames
Format settings, CABAC : Yes
Format settings, Reference frames : 10 frames
Codec ID : V_MPEG4/ISO/AVC
Duration : 1 h 52 min
Bit rate : 1 850 kb/s
Width : 1 024 pixels
Height : 428 pixels
Display aspect ratio : 2.40:1
Frame rate mode : Constant
Frame rate : 23.976 (24000/1001) FPS
Color space : YUV
Chroma subsampling : 4:2:0
Bit depth : 8 bits
Scan type : Progressive
Bits/(Pixel*Frame) : 0.176
Stream size : 1.45 GiB (67%)
Title : -=[wolf1245.ExKinoRay]=-
Writing library : x264 core 163 r3060 5db6aa6
Encoding settings : cabac=1 / ref=10 / deblock=1:-3:-3 / analyse=0x3:0x133 / me=umh / subme=10 / psy=1 / psy_rd=1.02:0.20 / mixed_ref=1 / me_range=32 / chroma_me=1 / trellis=2 / 8x8dct=1 / cqm=0 / deadzone=22,11 / fast_pskip=1 / chroma_qp_offset=-3 / threads=10 / lookahead_threads=2 / sliced_threads=0 / nr=0 / decimate=0 / interlaced=0 / bluray_compat=0 / constrained_intra=0 / bframes=10 / b_pyramid=2 / b_adapt=2 / b_bias=0 / direct=3 / weightb=1 / open_gop=0 / weightp=2 / keyint=240 / keyint_min=24 / scenecut=40 / intra_refresh=0 / rc_lookahead=60 / rc=2pass / mbtree=0 / bitrate=1850 / ratetol=1.0 / qcomp=0.60 / qpmin=0 / qpmax=69 / qpstep=4 / cplxblur=20.0 / qblur=0.5 / vbv_maxrate=50000 / vbv_bufsize=62500 / nal_hrd=none / filler=0 / ip_ratio=1.40 / pb_ratio=1.30 / aq=1:1.10
Language : English
Default : Yes
Forced : No
Color range : Limited
Color primaries : BT.709
Matrix coefficients : BT.709
Audio #1
ID : 2
Format : AC-3
Format/Info : Audio Coding 3
Commercial name : Dolby Digital
Codec ID : A_AC3
Duration : 1 h 52 min
Bit rate mode : Constant
Bit rate : 448 kb/s
Channel(s) : 6 channels
Channel layout : L R C LFE Ls Rs
Sampling rate : 48.0 kHz
Frame rate : 31.250 FPS (1536 SPF)
Compression mode : Lossy
Stream size : 359 MiB (16%)
Title : DVO | Pazl Voice | RUS
Language : Russian
Service kind : Complete Main
Default : Yes
Forced : No
Audio #2
ID : 3
Format : AC-3
Format/Info : Audio Coding 3
Commercial name : Dolby Digital
Codec ID : A_AC3
Duration : 1 h 52 min
Bit rate mode : Constant
Bit rate : 448 kb/s
Channel(s) : 6 channels
Channel layout : L R C LFE Ls Rs
Sampling rate : 48.0 kHz
Frame rate : 31.250 FPS (1536 SPF)
Compression mode : Lossy
Stream size : 359 MiB (16%)
Title : Original | ENG
Service kind : Complete Main
Default : No
Forced : No
Text #1
ID : 4
Format : UTF-8
Codec ID : S_TEXT/UTF8
Codec ID/Info : UTF-8 Plain Text
Duration : 1 h 45 min
Bit rate : 15 b/s
Count of elements : 235
Stream size : 12.3 KiB (0%)
Title : [forced]
Language : Russian
Default : Yes
Forced : No
Text #2
ID : 5
Format : UTF-8
Codec ID : S_TEXT/UTF8
Codec ID/Info : UTF-8 Plain Text
Duration : 1 h 46 min
Bit rate : 133 b/s
Count of elements : 2251
Stream size : 104 KiB (0%)
Title : [full]
Language : Russian
Default : No
Forced : No
Text #3
ID : 6
Format : UTF-8
Codec ID : S_TEXT/UTF8
Codec ID/Info : UTF-8 Plain Text
Duration : 1 h 51 min
Bit rate : 82 b/s
Count of elements : 2266
Stream size : 67.7 KiB (0%)
Language : English
Default : No
Forced : No
Text #4
ID : 7
Format : UTF-8
Codec ID : S_TEXT/UTF8
Codec ID/Info : UTF-8 Plain Text
Duration : 1 h 51 min
Bit rate : 87 b/s
Count of elements : 2403
Stream size : 71.1 KiB (0%)
Title : SDH
Language : English
Default : No
Forced : No
Text #5
ID : 8
Format : PGS
Muxing mode : zlib
Codec ID : S_HDMV/PGS
Codec ID/Info : Picture based subtitle format used on BDs/HD-DVDs
Duration : 1 h 51 min
Bit rate : 60.2 kb/s
Count of elements : 4861
Stream size : 48.0 MiB (2%)
Language : English
Default : No
Forced : No
Menu
00:00:00.000 : :Chapter 01
00:03:10.774 : :Chapter 02
00:10:40.265 : :Chapter 03
00:15:43.276 : :Chapter 04
00:21:57.525 : :Chapter 05
00:25:52.676 : :Chapter 06
00:33:25.670 : :Chapter 07
00:40:23.755 : :Chapter 08
00:46:05.554 : :Chapter 09
00:50:29.944 : :Chapter 10
00:58:57.451 : :Chapter 11
01:04:45.965 : :Chapter 12
01:11:17.607 : :Chapter 13
01:15:31.902 : :Chapter 14
01:18:53.938 : :Chapter 15
01:26:40.695 : :Chapter 16
01:32:44.768 : :Chapter 17
01:36:59.105 : :Chapter 18
01:40:10.421 : :Chapter 19
01:45:06.383 : :Chapter 20
Релиз от:
Автор релиза:
piratbit.org



Скачать Первый встречный через торрент http://i116.fastpic.org/big/2022/0215/18/6b7f9b4cd2432ff5e146e8c77fd0df18.jpeg Скачать, смотреть онлайн Первый встречный бесплантно в хорошем качестве Описание: Поп-дива Кэт Вальдез и ее жених Бастиан — самая обсуждаемая пара года, миллионы людей следят за каждым их шагом в прямом эфире. ... 9.8 10 10
Торрент: Зарегистрирован [2022-03-20 07:52] · скачан: 115 раз
Статус: √ проверено
Размер: 2.16 GB
Как cкачать? Как скачать Первый встречный через торрент | UTorrent

28-11-2019 20:33  

Отключить всю рекламу на сайте

24-03-2022 06:59 Первый встречный Скачать торрент  

в основном понравился женщинам ,да и то не особоpiratbit.org



    Дорогой пользователь! Огромная просьба, поблагодарите релизера, оцените раздачу и оставьте свои комментарий, если Вы скачали Первый встречный через торрент бесплатно!
    Комментировать посты могут только пользователи прошедшие не сложную регистрацию
    Показать сообщения:    

    Первый встречный через торрент
    Скачать бесплатно Первый встречный
    Первый встречный скачать торрент
    Первый встречный смотреть онлайн
    Cкачать фильм Первый встречный бесплатно
    Первый встречный скачать торрент в хорошем качестве
    Первый встречный смотреть онлайн бесплатно в хорошем качестве


    Вы можете начинать темы
    Вы можете отвечать на сообщения
    Вы не можете редактировать свои сообщения
    Вы не можете удалять свои сообщения
    Вы не можете голосовать в опросах
    Вы не можете прикреплять файлы к сообщениям
    Вы можете скачивать файлы