Достать ножи: Стеклянная луковица

MVO

Добыча

Дубляж

Уэнсдэй

1 сезон

Тор

Дубляж

13 клиническая

1 сезон

Жестокая ночь

MVO

Одни из нас

1 сезон

Deluxe

pack

Рекомендуем

30

Пиратка

ВАЖНО

ВАЖНО

Ghostwire

Пиратка

jed

RePack

nioh2

RePack

RDR2

RePack

NEED FOR SPEED™ PAYBACK

RePack

скачать торрент

Кинопоиск HD

Острые козырьки 6 сезон

6 сезон

FAR CRY 6

RePack

скачать торрент

Лицензия

скачать торрент

MVO

1

1 сезон

скачать торрент

1 сезон

скачать торрент

Лицензия

  

Эйфель / Eiffel (Мартин Бурбулон) [2021, Драма, мелодрама, биография, история, UHD BDRemux 2160p] Дубляж [СиПиАй Филмз / CPI Films | iTunes]

Эйфель через торрент piratbit.org

Размер: 64.37 GB | Добавлен: 11 мес. назад | Торрент скачан:42 раза
Смотреть онлайн | Скачать | Поддержите нас   

17-02-2022 00:29 Эйфель Скачать торрент  

Эйфель
Eiffel

Год выпуска: 2021
Страна: Франция, Бельгия, Германия
Студия: BNP Paribas, Canal+ [fr], Ciné, Centre National de la Cinématographie (CNC), Cofimage 31, Cofinova 16, Pathe, Région Ile-de-France, Scope Pictures, SG Image 2018, SofiTVciné 7, VVZ Productions, W9
Жанр: Драма, мелодрама, биография, история
Продолжительность: 01:47:42
Перевод: Дублированный | СиПиАй Филмз / CPI Films | iTunes
Субтитры: Русские (Full), английские

Режиссер: Мартин Бурбулон

rating

В ролях: Ромен Дюрис, Эмма Маккей, Пьер Деладоншам, Арман Буланжер, Бруно Раффаэлли, Александр Стайгер, Андраник Мане, Филипп Эриссон, Стефан Буше, Жереми Лопез

Описание: Париж, конец XIX века. Талантливый инженер Гюстав Эйфель мечтает строить метро, подземную железную дорогу будущего. Однако встреча с таинственной женщиной из его прошлого буквально переворачивает мир Эйфеля. Их головокружительный роман вдохновляет его на создание немыслимого архитектурного шедевра – гигантской ажурной башни, ставшей в итоге символом Парижа, романтики и любви.

Качество: UHD BDRemux 2160p
Формат: MKV

Видео: 3840x2160 at 24.000 fps, MPEG-H HEVC SDR, ~ 80000 kbps avg
Аудио #01: 48 kHz, AC3, 5.1, 384 Kbps | iTunes | RUS |
Аудио #02: 48 kHz, TrueHD, 7.1, 4460 Kbps | Оригинал | FRE |
Аудио #03: 48 kHz, AC3, 5.1, 640 Kbps | Оригинал | FRE |
скриншот  скриншот  скриншот  

скриншот  скриншот  скриншот  

General
Unique ID : 53814056374148410028660191230401901063 (0x287C35D3994B3EC93FF308AFFB1EF207)
Complete name : D:VideoEiffel.2021.BDREMUX.2160p.SDR.seleZen.mkv
Format : Matroska
Format version : Version 4
File size : 64.4 GiB
Duration : 1 h 47 min
Overall bit rate mode : Variable
Overall bit rate : 85.6 Mb/s
Movie name : Eiffel 2021 from seleZen
Encoded date : UTC 2022-02-16 23:21:18
Writing application : mkvmerge v59.0.0 ('Shining Star') 64-bit
Writing library : libebml v1.4.2 + libmatroska v1.6.4

Video
ID : 1
Format : HEVC
Format/Info : High Efficiency Video Coding
Format profile : Main 10@L5.1@High
Codec ID : V_MPEGH/ISO/HEVC
Duration : 1 h 47 min
Bit rate : 80.0 Mb/s
Width : 3 840 pixels
Height : 2 160 pixels
Display aspect ratio : 16:9
Frame rate mode : Constant
Frame rate : 24.000 FPS
Color space : YUV
Chroma subsampling : 4:2:0 (Type 2)
Bit depth : 10 bits
Bits/(Pixel*Frame) : 0.402
Stream size : 60.2 GiB (94%)
Writing library : ATEME Titan File 3.9.4 (4.9.4.12)
Language : French
Default : Yes
Forced : No
Color range : Limited
Color primaries : BT.709
Transfer characteristics : BT.709
Matrix coefficients : BT.709

Audio #1
ID : 2
Format : AC-3
Format/Info : Audio Coding 3
Commercial name : Dolby Digital
Codec ID : A_AC3
Duration : 1 h 47 min
Bit rate mode : Constant
Bit rate : 384 kb/s
Channel(s) : 6 channels
Channel layout : L R C LFE Ls Rs
Sampling rate : 48.0 kHz
Frame rate : 31.250 FPS (1536 SPF)
Compression mode : Lossy
Stream size : 296 MiB (0%)
Title : iTunes
Language : Russian
Service kind : Complete Main
Default : Yes
Forced : Yes

Audio #2
ID : 3
Format : MLP FBA 16-ch
Format/Info : Meridian Lossless Packing FBA with 16-channel presentation
Commercial name : Dolby TrueHD with Dolby Atmos
Codec ID : A_TRUEHD
Duration : 1 h 47 min
Bit rate mode : Variable
Bit rate : 4 460 kb/s
Maximum bit rate : 7 272 kb/s
Channel(s) : 8 channels
Channel layout : L R C LFE Ls Rs Lb Rb
Sampling rate : 48.0 kHz
Frame rate : 1 200.000 FPS (40 SPF)
Compression mode : Lossless
Stream size : 3.36 GiB (5%)
Title : Original
Language : French
Default : No
Forced : No
Number of dynamic objects : 11
Bed channel count : 1 channel
Bed channel configuration : LFE

Audio #3
ID : 4
Format : AC-3
Format/Info : Audio Coding 3
Commercial name : Dolby Digital
Format settings : Dolby Surround EX
Codec ID : A_AC3
Duration : 1 h 47 min
Bit rate mode : Constant
Bit rate : 640 kb/s
Channel(s) : 6 channels
Channel layout : L R C LFE Ls Rs
Sampling rate : 48.0 kHz
Frame rate : 31.250 FPS (1536 SPF)
Compression mode : Lossy
Stream size : 493 MiB (1%)
Language : French
Service kind : Complete Main
Default : No
Forced : No

Text #1
ID : 5
Format : UTF-8
Codec ID : S_TEXT/UTF8
Codec ID/Info : UTF-8 Plain Text
Duration : 1 h 42 min
Bit rate : 61 b/s
Count of elements : 1071
Stream size : 46.2 KiB (0%)
Title : Full
Language : Russian
Default : No
Forced : No

Text #2
ID : 6
Format : UTF-8
Codec ID : S_TEXT/UTF8
Codec ID/Info : UTF-8 Plain Text
Duration : 1 h 42 min
Bit rate : 30 b/s
Count of elements : 938
Stream size : 22.9 KiB (0%)
Title : SDH
Language : English
Default : No
Forced : No

Menu
00:00:00.000 : Chapter 1
00:09:02.125 : Chapter 2
00:16:36.000 : Chapter 3
00:26:21.000 : Chapter 4
00:37:42.750 : Chapter 5
00:48:09.875 : Chapter 6
00:57:16.708 : Chapter 7
01:09:30.542 : Chapter 8
01:17:07.917 : Chapter 9
01:27:57.167 : Chapter 10
01:36:27.375 : Chapter 11
01:43:38.292 : Chapter 12




Скачать Эйфель через торрент https://i4-imageban-ru.translate.goog/out/2022/09/04/26957001b106f19b59364cd72da03c56.webp Скачать, смотреть онлайн Эйфель бесплантно в хорошем качестве Описание: Париж, конец XIX века. Талантливый инженер Гюстав Эйфель мечтает строить метро, подземную железную дорогу будущего. Однако ... 10 10 2
Торрент: Зарегистрирован [2022-02-17 00:29] · скачан: 42 раз
Статус: √ проверено
Размер: 64.37 GB
Как cкачать? Как скачать Эйфель через торрент | UTorrent

% Раздел Тема Автор DL S | L
Фильмы 2021 [DVDrip, WEB-DLRip, HDrip] (DUB, MVO) [ 746 MB ] Эйфель / Eiffel | DUB | BDRip bober100 Скачать
1 | 0
Фильмы 2021 [DVDrip, WEB-DLRip, HDrip] (DUB, MVO) [ 2.17 GB ] Эйфель / Eiffel | iTunes | BDRip-AVC Lithuania Скачать
1 | 1
Фильмы [HD 720p, 1080p] (Хороший звук DUB, MVO) [ 5.48 GB ] Эйфель / Eiffel | DUB | 720p bober100 Скачать
2 | 0
Фильмы [HD 720p, 1080p] (Хороший звук DUB, MVO) [ 9.85 GB ] Эйфель / Eiffel | DUB | 1080p bober100 Скачать
2 | 0
Фильмы 2021 [DVDrip, WEB-DLRip, HDrip] (DUB, MVO) [ 2.14 GB ] Эйфель / Eiffel | iTunes | BDRip bober100 Скачать
1 | 0
Фильмы 2021 [DVDrip, WEB-DLRip, HDrip] (DUB, MVO) [ 1.41 GB ] Эйфель / Eiffel | iTunes | BDRip bober100 Скачать
2 | 0

28-11-2019 20:33  


Отключить вcю реклaмy на сайте, в т.ч. и в плеере онлайн просмотра!

    Дорогой пользователь! Огромная просьба, поблагодарите релизера, оцените раздачу и оставьте свои комментарий, если Вы скачали Эйфель через торрент бесплатно!!
    Комментировать посты могут только пользователи прошедшие не сложную регистрацию
    Показать сообщения:    


    Эйфель через торрент
    Скачать бесплатно Эйфель
    Эйфель скачать торрент
    Эйфель смотреть онлайн
    Cкачать фильм Эйфель бесплатно
    Эйфель скачать торрент в хорошем качестве
    Эйфель смотреть онлайн бесплатно в хорошем качестве
    Вы не можете начинать темы
    Вы не можете отвечать на сообщения
    Вы не можете редактировать свои сообщения
    Вы не можете удалять свои сообщения
    Вы не можете голосовать в опросах
    Вы не можете прикреплять файлы к сообщениям
    Вы можете скачивать файлы
    Эйфель / Eiffel [2021, Драма, мелодрама, биография, история, UHD BDRemux 2160p] Дубляж [СиПиАй Филмз / CPI Films | iTunes] смотреть онлайн, скачать торрент picoco.icu