Достать ножи: Стеклянная луковица

MVO

Добыча

Дубляж

Уэнсдэй

1 сезон

Тор

Дубляж

13 клиническая

1 сезон

Жестокая ночь

MVO

Одни из нас

1 сезон

Deluxe

pack

Рекомендуем

30

Пиратка

ВАЖНО

ВАЖНО

Ghostwire

Пиратка

jed

RePack

nioh2

RePack

RDR2

RePack

NEED FOR SPEED™ PAYBACK

RePack

скачать торрент

Кинопоиск HD

Острые козырьки 6 сезон

6 сезон

FAR CRY 6

RePack

скачать торрент

Лицензия

скачать торрент

MVO

1

1 сезон

скачать торрент

1 сезон

скачать торрент

Лицензия

  

Небо повсюду / The Sky Is Everywhere (Жозефин Декер) [2022, Драма, мелодрама, музыка, UHD WEB-DL-HEVC 2160p] Дубляж [Apple TV+]

Небо повсюду через торрент piratbit.org

Раздают: 1 [ 0 KB/s ]
Размер: 18.85 GB | Добавлен: 11 мес. назад | Торрент скачан:7 раз
Смотреть онлайн | Скачать | Поддержите нас   

17-02-2022 20:38 Небо повсюду Скачать торрент  

Небо повсюду
The Sky Is Everywhere

Год выпуска: 2022
Страна: США
Студия: A24, DiNovi Pictures
Жанр: Драма, мелодрама, музыка
Продолжительность: 01:43:35
Перевод: Дублированный | Apple TV+
Субтитры: Русские (Forced, full, SDH), английские

Режиссер: Жозефин Декер

rating

В ролях: Грэйс Кауфман, Джейсон Сигел, Черри Джонс, Пико Александр, Жак Колимон, Джулия Шлэпфер, Ю Джи-ён, Гавана Роуз Лю

Описание: Девочка-подросток Ленни тяжело переживает внезапную смерть своей старшей сестры Бейли. Горе сближает ее с Тоби, парнем сестры, а также Ленни находит утешение в общении с новым другом Джо. Вскоре отношения с парнями перерастают в романтические, и Ленни понимает, что ей предстоит сделать очень сложный выбор. «Небо повсюду» — экранизация подросткового бестселлера Джэнди Нельсон.

Качество: UHD WEB-DL-HEVC 2160p
Формат: MKV

Видео: 3840x1828 at 23.976 fps, MPEG-H HEVC HDR, ~ 24100 kbps avg
Аудио #01: 48 kHz, E-AC3+Atmos, 5.1, 768 Kbps | Дублированный | Apple TV+ | RUS |
Аудио #02: 48 kHz, AC3, 5.1, 448 Kbps | Дублированный | Apple TV+ | RUS |
Аудио #03: 48 kHz, E-AC3+Atmos, 5.1, 768 Kbps | Оригинал | ENG |
скриншот  скриншот  скриншот  скриншот  скриншот  

General
Unique ID : 26523490175063963746071712705567117474 (0x13F43D0781859EEAE36A7CB7597DD0A2)
Complete name : D:VideoThe.Sky.Is.Everywhere.2022.WEB-DL.2160p.HDR.seleZen.mkv
Format : Matroska
Format version : Version 4
File size : 18.9 GiB
Duration : 1 h 43 min
Overall bit rate : 26.1 Mb/s
Movie name : The Sky Is Everywhere 2022 from seleZen
Encoded date : UTC 2022-02-17 20:26:08
Writing application : mkvmerge v59.0.0 ('Shining Star') 64-bit
Writing library : libebml v1.4.2 + libmatroska v1.6.4

Video
ID : 1
Format : HEVC
Format/Info : High Efficiency Video Coding
Format profile : Main 10@L5@High
HDR format : SMPTE ST 2086, HDR10 compatible
Codec ID : V_MPEGH/ISO/HEVC
Duration : 1 h 43 min
Bit rate : 24.1 Mb/s
Width : 3 840 pixels
Height : 1 828 pixels
Display aspect ratio : 2.101
Frame rate mode : Constant
Frame rate : 23.976 FPS
Color space : YUV
Chroma subsampling : 4:2:0 (Type 2)
Bit depth : 10 bits
Bits/(Pixel*Frame) : 0.143
Stream size : 17.4 GiB (92%)
Language : English
Default : Yes
Forced : No
Color range : Limited
Color primaries : BT.2020
Transfer characteristics : PQ
Matrix coefficients : BT.2020 non-constant
Mastering display color pri : Display P3
Mastering display luminance : min: 0.0050 cd/m2, max: 1000 cd/m2
Maximum Content Light Level : 2208 cd/m2
Maximum Frame-Average Light : 174 cd/m2

Audio #1
ID : 2
Format : E-AC-3 JOC
Format/Info : Enhanced AC-3 with Joint Object Coding
Commercial name : Dolby Digital Plus with Dolby Atmos
Codec ID : A_EAC3
Duration : 1 h 43 min
Bit rate mode : Constant
Bit rate : 768 kb/s
Channel(s) : 6 channels
Channel layout : L R C LFE Ls Rs
Sampling rate : 48.0 kHz
Frame rate : 31.250 FPS (1536 SPF)
Compression mode : Lossy
Stream size : 569 MiB (3%)
Title : Дубляж
Language : Russian
Service kind : Complete Main
Default : Yes
Forced : Yes
Complexity index : 16
Number of dynamic objects : 15
Bed channel count : 1 channel
Bed channel configuration : LFE

Audio #2
ID : 3
Format : AC-3
Format/Info : Audio Coding 3
Commercial name : Dolby Digital
Codec ID : A_AC3
Duration : 1 h 43 min
Bit rate mode : Constant
Bit rate : 448 kb/s
Channel(s) : 6 channels
Channel layout : L R C LFE Ls Rs
Sampling rate : 48.0 kHz
Frame rate : 31.250 FPS (1536 SPF)
Compression mode : Lossy
Stream size : 332 MiB (2%)
Title : Дубляж
Language : Russian
Service kind : Complete Main
Default : No
Forced : No

Audio #3
ID : 4
Format : E-AC-3 JOC
Format/Info : Enhanced AC-3 with Joint Object Coding
Commercial name : Dolby Digital Plus with Dolby Atmos
Codec ID : A_EAC3
Duration : 1 h 43 min
Bit rate mode : Constant
Bit rate : 768 kb/s
Channel(s) : 6 channels
Channel layout : L R C LFE Ls Rs
Sampling rate : 48.0 kHz
Frame rate : 31.250 FPS (1536 SPF)
Compression mode : Lossy
Stream size : 569 MiB (3%)
Title : Original
Language : English
Service kind : Complete Main
Default : No
Forced : No
Complexity index : 16
Number of dynamic objects : 15
Bed channel count : 1 channel
Bed channel configuration : LFE

Text #1
ID : 5
Format : UTF-8
Codec ID : S_TEXT/UTF8
Codec ID/Info : UTF-8 Plain Text
Duration : 1 h 38 min
Bit rate : 2 b/s
Count of elements : 43
Stream size : 1.75 KiB (0%)
Title : Forced
Language : Russian
Default : Yes
Forced : Yes

Text #2
ID : 6
Format : UTF-8
Codec ID : S_TEXT/UTF8
Codec ID/Info : UTF-8 Plain Text
Duration : 1 h 43 min
Bit rate : 75 b/s
Count of elements : 1166
Stream size : 57.4 KiB (0%)
Title : Full
Language : Russian
Default : No
Forced : No

Text #3
ID : 7
Format : UTF-8
Codec ID : S_TEXT/UTF8
Codec ID/Info : UTF-8 Plain Text
Duration : 1 h 43 min
Bit rate : 101 b/s
Count of elements : 1521
Stream size : 76.8 KiB (0%)
Title : SDH
Language : Russian
Default : No
Forced : No

Text #4
ID : 8
Format : UTF-8
Codec ID : S_TEXT/UTF8
Codec ID/Info : UTF-8 Plain Text
Duration : 1 h 37 min
Bit rate : 51 b/s
Count of elements : 1122
Stream size : 36.5 KiB (0%)
Title : Full
Language : English
Default : No
Forced : No

Text #5
ID : 9
Format : UTF-8
Codec ID : S_TEXT/UTF8
Codec ID/Info : UTF-8 Plain Text
Duration : 1 h 37 min
Bit rate : 67 b/s
Count of elements : 1480
Stream size : 48.3 KiB (0%)
Title : SDH
Language : English
Default : No
Forced : No




Скачать Небо повсюду через торрент https://i116.fastpic.org/big/2022/0217/1a/6ccda57a122a865252109fd9ed968e1a.jpg Скачать, смотреть онлайн Небо повсюду бесплантно в хорошем качестве Описание: Девочка-подросток Ленни тяжело переживает внезапную смерть своей старшей сестры Бейли. Горе сближает ее с Тоби, парнем сестры, а ... 10 10 3
Торрент: Зарегистрирован [2022-02-17 20:38] · скачан: 7 раз
Статус: √ проверено
Размер: 18.85 GB
Как cкачать? Как скачать Небо повсюду через торрент | UTorrent

% Раздел Тема Автор DL S | L
Фильмы 2022-2023 [DVDrip, WEB-DLRip, HDrip] (DUB, MVO) [ 1.46 GB ] Небо повсюду / The Sky Is Everywhere | DUB | DLRip bober100 Скачать
1 | 0
Фильмы (WEB-DL 720p, 1080p) [ 8.66 GB ] Небо повсюду / The Sky Is Everywhere | DUB | 1080p bober100 Скачать
1 | 0

28-11-2019 20:33  


Отключить вcю реклaмy на сайте, в т.ч. и в плеере онлайн просмотра!

    Дорогой пользователь! Огромная просьба, поблагодарите релизера, оцените раздачу и оставьте свои комментарий, если Вы скачали Небо повсюду через торрент бесплатно!!
    Комментировать посты могут только пользователи прошедшие не сложную регистрацию
    Показать сообщения:    


    Небо повсюду через торрент
    Скачать бесплатно Небо повсюду
    Небо повсюду скачать торрент
    Небо повсюду смотреть онлайн
    Cкачать фильм Небо повсюду бесплатно
    Небо повсюду скачать торрент в хорошем качестве
    Небо повсюду смотреть онлайн бесплатно в хорошем качестве
    Вы не можете начинать темы
    Вы не можете отвечать на сообщения
    Вы не можете редактировать свои сообщения
    Вы не можете удалять свои сообщения
    Вы не можете голосовать в опросах
    Вы не можете прикреплять файлы к сообщениям
    Вы можете скачивать файлы
    Небо повсюду / The Sky Is Everywhere [2022, Драма, мелодрама, музыка, UHD WEB-DL-HEVC 2160p] Дубляж [Apple TV picoco.icu