Достать ножи: Стеклянная луковица

MVO

Добыча

Дубляж

Уэнсдэй

1 сезон

Тор

Дубляж

13 клиническая

1 сезон

Жестокая ночь

MVO

Одни из нас

1 сезон

Deluxe

pack

Рекомендуем

30

Пиратка

ВАЖНО

ВАЖНО

Ghostwire

Пиратка

jed

RePack

nioh2

RePack

RDR2

RePack

NEED FOR SPEED™ PAYBACK

RePack

скачать торрент

Кинопоиск HD

Острые козырьки 6 сезон

6 сезон

FAR CRY 6

RePack

скачать торрент

Лицензия

скачать торрент

MVO

1

1 сезон

скачать торрент

1 сезон

скачать торрент

Лицензия

  

Искушение / Benedetta (Пол Верховен) [2021, Драма, мелодрама, биография, история, UHD BDRemux 2160p, (Dolby Vision Profile 8)] Дубляж [Pride Production / Кинопоиск HD]

Искушение через торрент piratbit.org

Размер: 62.87 GB | Добавлен: 10 мес. назад | Торрент скачан:19 раз
Смотреть онлайн | Скачать | Поддержите нас   

07-03-2022 17:39 Искушение Скачать торрент  

Искушение
Benedetta

Год выпуска: 2021
Страна: Франция, Бельгия, Нидерланды
Студия: Belga Films Fund, Belga Productions, Canal+ [fr], Centre National du Cinéma, Cinémage 13, Cine+, Cofimage 30, Cofinova 15, France 2 Cinéma, France 3 Cinéma, France Télévision, Indéfilms 7, Netherland Filmfund, Palatine Etoile 16, Pathe, Région Provence-Alpes-Côte d'Azur, SBS Productions, Topkapi Films
Жанр: Драма, мелодрама, биография, история
Продолжительность: 02:11:14
Перевод: Дублированный | Pride Production | Кинопоиск HD
Субтитры: Русские (2 x Full), английские

Режиссер: Пол Верховен

rating

В ролях: Виржини Эфира, Шарлотта Рэмплинг, Дафна Патакия, Ламбер Вильсон, Оливье Рабурден, Луиз Шевильот, Эрве Пьер, Клотильда Куро, Давид Клавель, Гилен Лондез

Описание: Италия эпохи Возрождения. Место, где великая красота хладела в руках инквизиторов. Терзаемая эротическими видениями монахиня Бенедетта Карлини влюбляется в новую послушницу, пылкую и безрассудную. Вскоре об их запретной страсти узнают за пределами монастыря.

Качество: UHD BDRemux 2160p | Dolby Vision Profile 8
Формат: MKV

Видео: 3840x2160 at 24.000 fps, MPEG-H HEVC HDR, Dolby Vision Video ~ 65800 kbps avg
Аудио #01: 48 kHz, AC3, 5.1, 448 Kbps | Дублированный | Кинопоиск HD | RUS |
Аудио #02: 48 kHz, E-AC3, 5.1, 448 Kbps | Дублированный | Кинопоиск HD | RUS |
Аудио #03: 48 kHz, DTS-HD MA, 5.1, 1920 Kbps | Оригинал | FRE |
скриншот  скриншот  скриншот  скриншот  

General
Unique ID : 272207428960960084179616101772221503068 (0xCCC93E6D16A3BA62286A5B12062C565C)
Complete name : D:\Video1\Benedetta.2021.BDREMUX.2160p.HDR.DVP8.seleZen.mkv
Format : Matroska
Format version : Version 4
File size : 62.9 GiB
Duration : 2 h 11 min
Overall bit rate mode : Variable
Overall bit rate : 68.6 Mb/s
Movie name : Benedetta 2021 from seleZen
Encoded date : UTC 2022-03-07 16:37:53
Writing application : mkvmerge v59.0.0 ('Shining Star') 64-bit
Writing library : libebml v1.4.2 + libmatroska v1.6.4

Video
ID : 1
ID in the original source m : 4117 (0x1015)
Format : HEVC
Format/Info : High Efficiency Video Coding
Format profile : Main 10@L5.1@High
HDR format : Dolby Vision, Version 1.0, dvhe.08.06, BL+RPU, Blu-ray compatible / SMPTE ST 2094 App 4, Version 1, HDR10+ Profile B compatible
Codec ID : V_MPEGH/ISO/HEVC
Duration : 2 h 11 min
Bit rate : 65.8 Mb/s
Width : 3 840 pixels
Height : 2 160 pixels
Display aspect ratio : 16:9
Frame rate mode : Constant
Frame rate : 24.000 FPS
Color space : YUV
Chroma subsampling : 4:2:0 (Type 2)
Bit depth : 10 bits
Bits/(Pixel*Frame) : 0.330
Stream size : 60.3 GiB (96%)
Language : English
Default : No
Forced : No
Color range : Limited
Color primaries : BT.2020
Transfer characteristics : PQ
Matrix coefficients : BT.2020 non-constant
Mastering display color pri : Display P3
Mastering display luminance : min: 0.0001 cd/m2, max: 1000 cd/m2
Maximum Content Light Level : 1000 cd/m2
Maximum Frame-Average Light : 235 cd/m2
Original source medium : Blu-ray

Audio #1
ID : 2
Format : AC-3
Format/Info : Audio Coding 3
Commercial name : Dolby Digital
Codec ID : A_AC3
Duration : 2 h 11 min
Bit rate mode : Constant
Bit rate : 448 kb/s
Channel(s) : 6 channels
Channel layout : L R C LFE Ls Rs
Sampling rate : 48.0 kHz
Frame rate : 31.250 FPS (1536 SPF)
Compression mode : Lossy
Stream size : 420 MiB (1%)
Title : Дубляж [Kinopoisk HD]
Language : Russian
Service kind : Complete Main
Default : Yes
Forced : Yes

Audio #2
ID : 3
Format : E-AC-3
Format/Info : Enhanced AC-3
Commercial name : Dolby Digital Plus
Codec ID : A_EAC3
Duration : 2 h 11 min
Bit rate mode : Constant
Bit rate : 448 kb/s
Channel(s) : 6 channels
Channel layout : L R C LFE Ls Rs
Sampling rate : 48.0 kHz
Frame rate : 31.250 FPS (1536 SPF)
Compression mode : Lossy
Stream size : 420 MiB (1%)
Title : Дубляж [Kinopoisk HD]
Language : Russian
Service kind : Complete Main
Default : No
Forced : No

Audio #3
ID : 4
Format : DTS XLL
Format/Info : Digital Theater Systems
Commercial name : DTS-HD Master Audio
Codec ID : A_DTS
Duration : 2 h 11 min
Bit rate mode : Variable
Bit rate : 1 920 kb/s
Channel(s) : 6 channels
Channel layout : C L R Ls Rs LFE
Sampling rate : 48.0 kHz
Frame rate : 93.750 FPS (512 SPF)
Bit depth : 16 bits
Compression mode : Lossless
Stream size : 1.75 GiB (3%)
Title : Original
Language : French
Default : No
Forced : No

Text #1
ID : 5
Format : UTF-8
Codec ID : S_TEXT/UTF8
Codec ID/Info : UTF-8 Plain Text
Duration : 2 h 2 min
Bit rate : 67 b/s
Count of elements : 1213
Stream size : 60.8 KiB (0%)
Title : Full [Serene]
Language : Russian
Default : No
Forced : No

Text #2
ID : 6
Format : UTF-8
Codec ID : S_TEXT/UTF8
Codec ID/Info : UTF-8 Plain Text
Duration : 2 h 4 min
Bit rate : 63 b/s
Count of elements : 1231
Stream size : 57.6 KiB (0%)
Title : Full [Kinoenot]
Language : Russian
Default : No
Forced : No

Text #3
ID : 7
Format : UTF-8
Codec ID : S_TEXT/UTF8
Codec ID/Info : UTF-8 Plain Text
Duration : 2 h 5 min
Bit rate : 37 b/s
Count of elements : 1227
Stream size : 34.8 KiB (0%)
Title : Full
Language : English
Default : No
Forced : No

Menu
00:00:00.000 : Глава 01
00:09:23.458 : Глава 02
00:21:44.958 : Глава 03
00:31:10.417 : Глава 04
00:43:54.292 : Глава 05
00:52:52.708 : Глава 06
01:07:38.542 : Глава 07
01:15:17.500 : Глава 08
01:28:26.375 : Глава 09
01:36:16.417 : Глава 10
01:49:12.958 : Глава 11
02:05:25.042 : Глава 12
02:11:02.000 : Глава 13




Скачать Искушение через торрент https://i4-imageban-ru.translate.goog/out/2022/03/07/0ca1a94deda2e77b52c92ca0b2a34773.jpg Скачать, смотреть онлайн Искушение бесплантно в хорошем качестве Описание: Италия эпохи Возрождения. Место, где великая красота хладела в руках инквизиторов. Терзаемая эротическими видениями монахиня ... 10 10 2
Торрент: Зарегистрирован [2022-03-07 17:39] · скачан: 19 раз
Статус: √ проверено
Размер: 62.87 GB
Как cкачать? Как скачать Искушение через торрент | UTorrent

28-11-2019 20:33  


Отключить вcю реклaмy на сайте, в т.ч. и в плеере онлайн просмотра!

    Дорогой пользователь! Огромная просьба, поблагодарите релизера, оцените раздачу и оставьте свои комментарий, если Вы скачали Искушение через торрент бесплатно!!
    Комментировать посты могут только пользователи прошедшие не сложную регистрацию
    Показать сообщения:    


    Искушение через торрент
    Скачать бесплатно Искушение
    Искушение скачать торрент
    Искушение смотреть онлайн
    Cкачать фильм Искушение бесплатно
    Искушение скачать торрент в хорошем качестве
    Искушение смотреть онлайн бесплатно в хорошем качестве
    Вы не можете начинать темы
    Вы не можете отвечать на сообщения
    Вы не можете редактировать свои сообщения
    Вы не можете удалять свои сообщения
    Вы не можете голосовать в опросах
    Вы не можете прикреплять файлы к сообщениям
    Вы можете скачивать файлы
    Искушение / Benedetta [2021, Драма, мелодрама, биография, история, UHD BDRemux 2160p, ] Дубляж [Pride Production / Кинопоиск HD] смотреть онлайн, скачать торрент picoco.icu