Достать ножи: Стеклянная луковица

MVO

Добыча

Дубляж

Уэнсдэй

1 сезон

Тор

Дубляж

13 клиническая

1 сезон

Жестокая ночь

MVO

Одни из нас

1 сезон

Deluxe

pack

Рекомендуем

30

Пиратка

ВАЖНО

ВАЖНО

Ghostwire

Пиратка

jed

RePack

nioh2

RePack

RDR2

RePack

NEED FOR SPEED™ PAYBACK

RePack

скачать торрент

Кинопоиск HD

Острые козырьки 6 сезон

6 сезон

FAR CRY 6

RePack

скачать торрент

Лицензия

скачать торрент

MVO

1

1 сезон

скачать торрент

1 сезон

скачать торрент

Лицензия

  

Человек-паук: Нет пути домой / Spider-Man: No Way Home (Джон Уоттс) [2021, Фантастика, боевик, приключения, UHD BDRemux 2160p] Дубляж [Лицензия]

Человек-паук: Нет пути домой через торрент piratbit.org

Раздают: 2 [ 0 KB/s ]
Размер: 59.65 GB | Добавлен: 9 мес. назад | Торрент скачан:258 раз
Смотреть онлайн | Скачать | Поддержите нас   

14-03-2022 17:24 Человек-паук: Нет пути домой Скачать торрент  

Человек-паук: Нет пути домой
Spider-Man: No Way Home

Год выпуска: 2021
Страна: США
Выпущено: Columbia Pictures Corporation, Marvel Studios Inc., Pascal Pictures, Sony Pictures Entertainment (SPE)
Жанр: Фантастика, боевик, приключения
Продолжительность: 02:28:09
Перевод: Дублированный | Лицензия
Субтитры: Русские (Forced, 2 x full), украинские (Full), английские

Режиссер: Джон Уоттс

rating

В ролях: Том Холланд, Зендая, Бенедикт Камбербэтч, Мариса Томей, Джейкоб Баталон, Уиллем Дефо, Альфред Молина, Джейми Фокс, Рис Иванс, Томас Хейден Черч, Джон Фавро, Тоби Магуайр, Эндрю Гарфилд, Тони Револори, Дж.К. Симмонс, Бенедикт Вонг, Энгаури Райс, Мартин Старр, Дж.Б. Смув, Гарри Холланд, Хэннибал Бересс, Паула Ньюсом, Хорхе Лендеборг мл., Чарли Кокс

Описание: Теперь, когда весь мир узнал, кто скрывается за маской Человека-паука, жизнь Питера Паркера и его близких меняется не в лучшую сторону. Не придумав ничего лучше, Паркер обращается за помощью к Доктору Стрэнджу. Но в процессе заклинания, которое должно было заставить человечество забыть о Питере, что-то идет не так, в результате чего открывается портал в Мультивселенную. Герою предстоит познакомиться со всеми суперзлодеями, с которыми приходилось бороться Человеку-пауку в альтернативных реальностях.

Качество: UHD BDRemux 2160p
Формат: MKV

Видео: 3840x2160 at 23.976 fps, MPEG-H HEVC HDR, ~ 52200 kbps avg
Аудио #01: 48 kHz, AC3, 5.1, 640 Kbps | Дублированный | Лицензия | RUS |
Аудио #02: 48 kHz, TrueHD, 7.1, 4054 Kbps | Оригинал | ENG |
Аудио #03: 48 kHz, AC3, 5.1, 640 Kbps | Оригинал | ENG |
скриншот  скриншот  скриншот  скриншот  скриншот  

General
Unique ID : 232398191433750556404710846685253118895 (0xAED6437AA89192FBD469A592C796ABAF)
Complete name : D:Video1Spider-Man.No.Way.Home.2021.Lic.BDREMUX.2160p.HDR.seleZen.mkv
Format : Matroska
Format version : Version 4
File size : 59.7 GiB
Duration : 2 h 28 min
Overall bit rate mode : Variable
Overall bit rate : 57.6 Mb/s
Movie name : Spider-Man No Way Home 2021 from seleZen
Encoded date : UTC 2022-04-03 09:27:45
Writing application : mkvmerge v59.0.0 ('Shining Star') 64-bit
Writing library : libebml v1.4.2 + libmatroska v1.6.4

Video
ID : 1
Format : HEVC
Format/Info : High Efficiency Video Coding
Format profile : Main 10@L5.1@High
HDR format : SMPTE ST 2086, HDR10 compatible
Codec ID : V_MPEGH/ISO/HEVC
Duration : 2 h 28 min
Bit rate : 52.2 Mb/s
Width : 3 840 pixels
Height : 2 160 pixels
Display aspect ratio : 16:9
Frame rate mode : Constant
Frame rate : 23.976 (24000/1001) FPS
Color space : YUV
Chroma subsampling : 4:2:0 (Type 2)
Bit depth : 10 bits
Bits/(Pixel*Frame) : 0.263
Stream size : 54.1 GiB (91%)
Language : English
Default : Yes
Forced : No
Color range : Limited
Color primaries : BT.2020
Transfer characteristics : PQ
Matrix coefficients : BT.2020 non-constant
Mastering display color pri : BT.2020
Mastering display luminance : min: 0.0001 cd/m2, max: 1000 cd/m2
Maximum Content Light Level : 9978 cd/m2
Maximum Frame-Average Light : 867 cd/m2

Audio #1
ID : 2
Format : AC-3
Format/Info : Audio Coding 3
Commercial name : Dolby Digital
Codec ID : A_AC3
Duration : 2 h 28 min
Bit rate mode : Constant
Bit rate : 640 kb/s
Channel(s) : 6 channels
Channel layout : L R C LFE Ls Rs
Sampling rate : 48.0 kHz
Frame rate : 31.250 FPS (1536 SPF)
Compression mode : Lossy
Stream size : 678 MiB (1%)
Title : Дубляж [License]
Language : Russian
Service kind : Complete Main
Default : Yes
Forced : Yes

Audio #2
ID : 3
Format : MLP FBA 16-ch
Format/Info : Meridian Lossless Packing FBA with 16-channel presentation
Commercial name : Dolby TrueHD with Dolby Atmos
Codec ID : A_TRUEHD
Duration : 2 h 28 min
Bit rate mode : Variable
Bit rate : 4 054 kb/s
Maximum bit rate : 7 548 kb/s
Channel(s) : 8 channels
Channel layout : L R C LFE Ls Rs Lb Rb
Sampling rate : 48.0 kHz
Frame rate : 1 200.000 FPS (40 SPF)
Compression mode : Lossless
Stream size : 4.20 GiB (7%)
Title : Original
Language : English
Default : No
Forced : No
Number of dynamic objects : 11
Bed channel count : 1 channel
Bed channel configuration : LFE

Audio #3
ID : 4
Format : AC-3
Format/Info : Audio Coding 3
Commercial name : Dolby Digital
Codec ID : A_AC3
Duration : 2 h 28 min
Bit rate mode : Constant
Bit rate : 640 kb/s
Channel(s) : 6 channels
Channel layout : L R C LFE Ls Rs
Sampling rate : 48.0 kHz
Frame rate : 31.250 FPS (1536 SPF)
Compression mode : Lossy
Stream size : 678 MiB (1%)
Language : English
Service kind : Complete Main
Default : No
Forced : No

Text #1
ID : 5
Format : UTF-8
Codec ID : S_TEXT/UTF8
Codec ID/Info : UTF-8 Plain Text
Duration : 2 h 16 min
Bit rate : 0 b/s
Count of elements : 9
Stream size : 532 Bytes (0%)
Title : Forced
Language : Russian
Default : Yes
Forced : Yes

Text #2
ID : 6
Format : UTF-8
Codec ID : S_TEXT/UTF8
Codec ID/Info : UTF-8 Plain Text
Duration : 2 h 28 min
Bit rate : 83 b/s
Count of elements : 1941
Stream size : 90.1 KiB (0%)
Title : Full
Language : Russian
Default : No
Forced : No

Text #3
ID : 7
Format : UTF-8
Codec ID : S_TEXT/UTF8
Codec ID/Info : UTF-8 Plain Text
Duration : 2 h 28 min
Bit rate : 97 b/s
Count of elements : 2092
Stream size : 106 KiB (0%)
Title : Full [FOCS]
Language : Russian
Default : No
Forced : No

Text #4
ID : 8
Format : UTF-8
Codec ID : S_TEXT/UTF8
Codec ID/Info : UTF-8 Plain Text
Duration : 2 h 28 min
Bit rate : 88 b/s
Count of elements : 1984
Stream size : 96.0 KiB (0%)
Title : Full
Language : Ukrainian
Default : No
Forced : No

Text #5
ID : 9
Format : UTF-8
Codec ID : S_TEXT/UTF8
Codec ID/Info : UTF-8 Plain Text
Duration : 2 h 27 min
Bit rate : 63 b/s
Count of elements : 2187
Stream size : 69.1 KiB (0%)
Title : Full
Language : English
Default : No
Forced : No

Menu
00:00:00.000 : Capítulo 01
00:05:03.177 : Capítulo 02
00:11:58.591 : Capítulo 03
00:18:38.909 : Capítulo 04
00:27:00.451 : Capítulo 05
00:37:21.239 : Capítulo 06
00:48:02.003 : Capítulo 07
00:59:51.795 : Capítulo 08
01:04:06.634 : Capítulo 09
01:09:51.311 : Capítulo 10
01:18:29.453 : Capítulo 11
01:28:59.625 : Capítulo 12
01:33:48.287 : Capítulo 13
01:46:38.390 : Capítulo 14
02:05:39.323 : Capítulo 15
02:13:03.600 : Capítulo 16




Скачать Человек-паук: Нет пути домой через торрент https://i7-imageban-ru.translate.goog/out/2022/03/15/e0df6f614e1d147c7552e0f1ae4e962c.png Скачать, смотреть онлайн Человек-паук: Нет пути домой бесплантно в хорошем качестве Описание: Теперь, когда весь мир узнал, кто скрывается за маской Человека-паука, жизнь Питера Паркера и его близких меняется не в лучшую ... 10 10 19
Info! Золотая раздача, скачанное не засчитывается.
Торрент: Зарегистрирован [2022-04-03 09:45] · скачан: 258 раз
Статус: √ проверено
Размер: 59.65 GB
Как cкачать? Как скачать Человек-паук: Нет пути домой через торрент | UTorrent

% Раздел Тема Автор DL S | L
Фильмы (WEB-DL 720p, 1080p) [ 9.68 GB ] Человек-паук: Нет пути домой / Spider-Man: No Way Home | DUB | Человек-паук: Нет пути домой / Spider-Man: No Way Home (Джон Уоттс bober100 Скачать
5 | 0
3D Фильмы [ 9.89 GB ] Человек-паук: Нет пути домой в 3Д / Spider-Man: No Way Home 3D | Дубляж | 1080p, Дубляж slaventi-69 Скачать
1 | 0
3D Фильмы [ 18.81 GB ] Человек-паук: Нет пути домой в 3Д / Spider-Man: No Way Home 3D | | 1080p serega768 Скачать
1 | 1
Фильмы 2021 [DVDrip, WEB-DLRip, HDrip] (DUB, MVO) [ 1.46 GB ] Человек-паук: Нет пути домой / Spider-Man: No Way Home | Лицензия | BDRip bober100 Скачать
4 | 0
Фильмы 2021 [DVDrip, WEB-DLRip, HDrip] (DUB, MVO) [ 3.03 GB ] Человек-паук: Нет пути домой / Spider-Man: No Way Home | DUB | BDRip-AVC bober100 Скачать
3 | 0
Фильмы (HD 720p, 1080p) (48-60 fps) [ 5.57 GB ] Человек-паук: Нет пути домой / Spider-Man: No Way Home | Дубляж | 720p / 60 FPS slaventi-69 Скачать
1 | 0
Фильмы с украинским озвучиванием [ 5.91 GB ] Человек-паук: Нет пути домой / Spider-Man: No Way Home | DUB | 1080p killermax2013 Скачать
1 | 1

28-11-2019 20:33  


Отключить вcю реклaмy на сайте, в т.ч. и в плеере онлайн просмотра!

03-04-2022 12:18 Человек-паук: Нет пути домой Скачать торрент  

а можно выложить фильм размером 1,46 гб?



06-05-2022 16:31 Человек-паук: Нет пути домой Скачать торрент  

Раздающие есть ?
Добавьте скорости по братски.. А то совсем не качает!
спс



    Дорогой пользователь! Огромная просьба, поблагодарите релизера, оцените раздачу и оставьте свои комментарий, если Вы скачали Человек-паук: Нет пути домой через торрент бесплатно!!
    Комментировать посты могут только пользователи прошедшие не сложную регистрацию
    Показать сообщения:    


    Человек-паук: Нет пути домой через торрент
    Скачать бесплатно Человек-паук: Нет пути домой
    Человек-паук: Нет пути домой скачать торрент
    Человек-паук: Нет пути домой смотреть онлайн
    Cкачать фильм Человек-паук: Нет пути домой бесплатно
    Человек-паук: Нет пути домой скачать торрент в хорошем качестве
    Человек-паук: Нет пути домой смотреть онлайн бесплатно в хорошем качестве
    Вы не можете начинать темы
    Вы не можете отвечать на сообщения
    Вы не можете редактировать свои сообщения
    Вы не можете удалять свои сообщения
    Вы не можете голосовать в опросах
    Вы не можете прикреплять файлы к сообщениям
    Вы можете скачивать файлы
    Человек-паук: Нет пути домой / Spider-Man: No Way Home [2021, Фантастика, боевик, приключения, UHD BDRemux 2160p] Дубляж [Лицензия] смотреть онлайн, скачать торрент picoco.icu