Всегда рабочее зеркало без VPN и Proxy просто перед .vidak.icu напиши любое слово или цифру, Пример http://k3hv.vidak.icu

MVO

2 сезон

2 сезон

1

1 сезон

iTunes

2 сезон

13

1 сезон

Распродажа

pack

Рекомендуем

Пиратка

30

ВАЖНО

RePack

MK11

RePack

jed

RePack

fifa19

RePack

RDR2

RePack

NEED FOR SPEED™ PAYBACK

Кинопоиск HD

6 сезон

 Острые козырьки 6 сезон

Все сериалы

все сериалы на PB.wtf

RePack

FAR CRY 5

Anonymous, нам критически не хватает 5601 руб. на оплату серверов и переферии за Апрель, помоги нам пожалуйста, вся надежда только на тебя. В благодарность мы отключим тебе всю рекламу на сайте!

×
  
Magnet ссылка

Чикатило / Сезон: 2 / Серии: 1-8 из 8 (Сарик Андреасян) [2022, Детектив, драма, криминал, триллер, WEB-DL 1080p, (Версия 18+)] piratbit.org

Чикатило через торрент piratbit.org

Раздают: 38 [ 3 MB/s ] Качают: 18 [ 0 KB/s ]
Размер: 16.88 GB | Добавлен: 15 д. назад | Торрент скачан:288 раз
Смотреть онлайн Чикатило | Скачать    Ребята, помогите собрать деньги на оплату серверов!!!

17-03-2022 04:26 Чикатило Скачать торрент  

Чикатило
Год выпуска: 2021
Страна: Россия
Студия: Ökko Studios
Жанр: Детектив, драма, криминал, триллер
Продолжительность: ~ 00:50:00 серия
Перевод: Не требуется
Субтитры: отсутствуют
Версия 18+

Режиссер: Сарик Андреасян

rating

В ролях: Дмитрий Нагиев, Николай Козак, Дмитрий Власкин, Константин Лавроненко, Юлия Афанасьева, Виталий Кищенко, Евгений Шириков, Олег Каменщиков, Карэн Бадалов, Виктория Богатырёва, Алексей Кирсанов, Елизавета Моряк, Марк Богатырёв, Елизавета Говорова, Олег Евтеев, Александр Булатов

Описание: Финальный сезон художественного сериала, в основу которого легла история двойной жизни самого известного маньяка Советского Союза Андрея Чикатило и расследования его преступлений. СССР, середина 80-х годов. В стране началась Перестройка, правительством заявлены перемены, но на местах до этого еще очень далеко. Маньяк, известный в народе как «Ростовский потрошитель», продолжает совершать преступления, и следственные группы полковника Ковалева и прибывшего на смену Кесаеву полковника Брагина прикладывают все усилия, чтобы вычислить его, однако между коллегами нет согласия и слаженности. Давнее противостояние вновь набирает обороты.

Качество: WEB-DL 1080p
Формат: MKV

Видео: MPEG-4 AVC, 1920x800, ~ 5000 Кбит/с, 0.130 bit/pixel, 25 Кадр/с
Аудио 1: 48 kHz, AC3 Dolby Digital, 3/2 (L, C, R, l, r) + LFE ch, ~384 Kbps | С цензурой
Аудио 2: 48 kHz, AC3 Dolby Digital, 3/2 (L, C, R, l, r) + LFE ch, ~384 Kbps | Без цензуры (18+)
скриншот  скриншот  скриншот  скриншот  

Общее
Уникальный идентификатор : 271279927519986120517939929012278467911 (0xCC169D13113B11A72DCC1DD284E51D47)
Полное имя : D:\Chikatilo.S02.2022.WEB-DLRip.1080p\Chikatilo.S02.E04.2022.WEB-DLRip.1080p.mkv
Формат : Matroska
Версия формата : Version 4
Размер файла : 2,23 Гбайт
Продолжительность : 55 м. 34 с.
Общий поток : 5 750 Кбит/сек
Название фильма : Chikatilo.S02.E04.2022.WEB-DLRip.1080p
Дата кодирования : UTC 2022-04-06 23:52:20
Программа кодирования : mkvmerge v66.0.0 ('Josie') 64-bit
Библиотека кодирования : libebml v1.4.2 + libmatroska v1.6.4
Attachments : poster.jpg

Видео
Идентификатор : 1
Формат : AVC
Формат/Информация : Advanced Video Codec
Профиль формата : High@L4
Настройки формата : CABAC / 3 Ref Frames
Параметр CABAC формата : Да
Параметр RefFrames формата : 3 кадра
Идентификатор кодека : V_MPEG4/ISO/AVC
Продолжительность : 55 м. 34 с.
Битрейт : 5 000 Кбит/сек
Ширина : 1 920 пикселей
Высота : 800 пикселей
Соотношение сторон : 2,40:1
Режим частоты кадров : Постоянный
Частота кадров : 25,000 кадров/сек
Цветовое пространство : YUV
Субдискретизация насыщенности : 4:2:0
Битовая глубина : 8 бит
Тип развёртки : Прогрессивная
Бит/(Пиксели*Кадры) : 0.130
Размер потока : 1,93 Гбайт (87%)
Библиотека кодирования : x264 core 161 r3048 b86ae3c
Настройки программы : cabac=1 / ref=4 / deblock=1:1:1 / analyse=0x3:0x133 / me=umh / subme=9 / psy=1 / psy_rd=0.40:1.00 / mixed_ref=1 / me_range=24 / chroma_me=1 / trellis=0 / 8x8dct=1 / cqm=0 / deadzone=21,11 / fast_pskip=1 / chroma_qp_offset=-2 / threads=25 / lookahead_threads=2 / sliced_threads=0 / nr=0 / decimate=1 / interlaced=0 / bluray_compat=0 / constrained_intra=0 / bframes=8 / b_pyramid=1 / b_adapt=1 / b_bias=0 / direct=3 / weightb=1 / open_gop=0 / weightp=2 / keyint=75 / keyint_min=38 / scenecut=0 / intra_refresh=0 / rc_lookahead=30 / rc=2pass / mbtree=1 / bitrate=5000 / ratetol=1.0 / qcomp=0.80 / qpmin=1 / qpmax=69 / qpstep=4 / cplxblur=20.0 / qblur=0.5 / vbv_maxrate=7500 / vbv_bufsize=10000 / nal_hrd=none / filler=0 / ip_ratio=1.40 / aq=1:1.00
Default : Да
Forced : Нет
Цветовой диапазон : Limited
Основные цвета : BT.709
Характеристики трансфера : BT.709
Коэффициенты матрицы : BT.709

Аудио #1
Идентификатор : 2
Формат : AC-3
Формат/Информация : Audio Coding 3
Коммерческое название : Dolby Digital
Идентификатор кодека : A_AC3
Продолжительность : 55 м. 34 с.
Вид битрейта : Постоянный
Битрейт : 384 Кбит/сек
Каналы : 6 каналов
Channel layout : L R C LFE Ls Rs
Частота : 48,0 КГц
Частота кадров : 31,250 кадров/сек (1536 SPF)
Метод сжатия : С потерями
Размер потока : 153 Мбайт (7%)
Заголовок : Censor
Язык : Russian
Service kind : Complete Main
Default : Да
Forced : Нет

Аудио #2
Идентификатор : 3
Формат : AC-3
Формат/Информация : Audio Coding 3
Коммерческое название : Dolby Digital
Идентификатор кодека : A_AC3
Продолжительность : 55 м. 34 с.
Вид битрейта : Постоянный
Битрейт : 384 Кбит/сек
Каналы : 6 каналов
Channel layout : L R C LFE Ls Rs
Частота : 48,0 КГц
Частота кадров : 31,250 кадров/сек (1536 SPF)
Метод сжатия : С потерями
Размер потока : 153 Мбайт (7%)
Заголовок : 18+
Язык : Russian
Service kind : Complete Main
Default : Нет
Forced : Нет

Когда раздача ведётся путём добавления новых серий, при каждом добавлении создётся новый торрент. Чтобы начать докачку новой серии, пользователям необходимо сделать следующее:
(1) остановить скачивание,
(2) удалить старый торрент у себя из клиента (старые серии удалять не надо),
(3) скачать новый торрент и запустить его у себя в клиенте вместо старого, при этом указать клиенту путь в старую папку, куда и должно происходить скачивание новых серий.
Ваш клиент при этом должен произвести хеширование (проверку) старой папки (если не производит сам - помогите ему сделать это), и будет докачивать только те серии, которых у вас ещё нет. Старые серии при этом не удаляются, а продолжают раздаваться!
Eсли вы уже удалили старые серии, то предотвратить повторную закачку старых серий можно, отжав галочку в соответсвующих местах при запуске нового торрента. По возможности, желательно не удалять старые серии как можно дольше, чтобы релизёр не столько продолжал раздавать старые серии, а смог сконцентрироваться на новых.

piratbit.org



Скачать Чикатило через торрент https://i116.fastpic.org/big/2022/0317/18/faa54c9f2ed0f66888b7e353ca050618.jpg Скачать, смотреть онлайн Чикатило бесплантно в хорошем качестве Описание: Финальный сезон художественного сериала, в основу которого легла история двойной жизни самого известного маньяка Советского Союза ... 9.3 10 58
Info! Золотая раздача, скачанное не засчитывается.
Торрент: Зарегистрирован [2022-05-05 03:33] · скачан: 288 раз
Статус: √ проверено
Размер: 16.88 GB
Как cкачать? Как скачать Чикатило через торрент | UTorrent

% Раздел Тема Автор DL S | L
Наши сериалы [ 10.46 GB ] Чикатило / Сезон: 2 / Серии: 1-8 из 8 [2022 WEB-DL 720p] GEKADOL Скачать
10 | 5
Наши сериалы [ 6.95 GB ] Чикатило / Сезон: 2 / Серии: 1-8 из 8 [2022 WEB-DLRip-AVC] bober100 Скачать
34 | 31
Наши сериалы [ 6.82 GB ] Чикатило / Сезон: 2 / Серии: 1-8 из 8 [2022 WEB-DLRip] GEKADOL Скачать
13 | 5


Последний раз редактировалось: bober100 (2022-05-05 03:33), всего редактировалось 5 раз(а)

28-11-2019 20:33  

Отключить всю рекламу на сайте

15-04-2022 14:00 Чикатило Скачать торрент  

Блин, ну не люблю я Нагиева. После Осторожно Модерн он стал попсой. Здесь я испытываю к нему отвращение.... Хорошо сыграл...piratbit.org



16-04-2022 08:03 Чикатило Скачать торрент  

Андрюшенька piratbit.org



03-05-2022 06:15 Чикатило Скачать торрент  

благодарюpiratbit.org



06-05-2022 04:25 Чикатило Скачать торрент  

piratbit.org



14-05-2022 08:32 Чикатило Скачать торрент  

Из Нагиева драматический актер, как из говна пуля)))
Сериал норм piratbit.org



    Дорогой пользователь! Огромная просьба, поблагодарите релизера, оцените раздачу и оставьте свои комментарий, если Вы скачали Чикатило через торрент бесплатно!
    Комментировать посты могут только пользователи прошедшие не сложную регистрацию
    Показать сообщения:    

    Чикатило через торрент
    Скачать бесплатно Чикатило
    Чикатило скачать торрент
    Чикатило смотреть онлайн
    Cкачать фильм Чикатило бесплатно
    Чикатило скачать торрент в хорошем качестве
    Чикатило смотреть онлайн бесплатно в хорошем качестве


    Вы не можете начинать темы
    Вы не можете отвечать на сообщения
    Вы не можете редактировать свои сообщения
    Вы не можете удалять свои сообщения
    Вы не можете голосовать в опросах
    Вы не можете прикреплять файлы к сообщениям
    Вы можете скачивать файлы