Достать ножи: Стеклянная луковица

MVO

Добыча

Дубляж

Уэнсдэй

1 сезон

Тор

Дубляж

13 клиническая

1 сезон

Жестокая ночь

MVO

Одни из нас

1 сезон

Deluxe

pack

Рекомендуем

30

Пиратка

ВАЖНО

ВАЖНО

Ghostwire

Пиратка

jed

RePack

nioh2

RePack

RDR2

RePack

NEED FOR SPEED™ PAYBACK

RePack

скачать торрент

Кинопоиск HD

Острые козырьки 6 сезон

6 сезон

FAR CRY 6

RePack

скачать торрент

Лицензия

скачать торрент

MVO

1

1 сезон

скачать торрент

1 сезон

скачать торрент

Лицензия

  

Жажда золота / Gold (Энтони Хэйес) [2022, Боевик, триллер, UHD WEB-DL-HEVC 2160p] Дубляж [Марафон / Кинопоиск HD]

Жажда золота через торрент piratbit.org

Раздают: 2 [ 0 KB/s ]
Размер: 9.38 GB | Добавлен: 10 мес. назад | Торрент скачан:135 раз
Смотреть онлайн | Скачать | Поддержите нас   

17-03-2022 06:16 Жажда золота Скачать торрент  

Жажда золота
Gold

Год выпуска: 2022
Страна: Австралия
Студия: Deeper Water, Ingenious Media, Pump Metal Films, Rogue Star Productions, SunJive Studios
Жанр: Боевик, триллер
Продолжительность: 01:36:26
Перевод: Дублированный | Марафон | Кинопоиск HD
Субтитры: Русские (Full), английские

Режиссер: Энтони Хэйес

rating

В ролях: Зак Эфрон, Энтони Хэйес, Сьюзи Портер, Акуол Нгот, Тиик Биар, Андреас Собик

Описание: В недалеком будущем мир превратился в одну огромную пустыню. Два незнакомца случайно обнаруживают огромные залежи золота. Пока один из них отправляется за техникой, чтобы добыть драгоценный металл из земли, второй остается караулить богатство. Изнемогая под палящим солнцем, без еды и воды, отбиваясь от хищников и агрессивных путников, герой проходит жесточайшее испытание на прочность.

Качество: UHD WEB-DL-HEVC 2160p
Формат: MKV

Видео: 3840x2160 at 24.000 fps, MPEG-H HEVC HDR Video ~ 12600 kbps avg
Аудио #01: 48 kHz, AC3, 5.1, 448 Kbps | Дублированный | Марафон | RUS |
Аудио #02: 48 kHz, E-AC3, 5.1, 448 Kbps | Дублированный | Марафон | RUS |
Аудио #03: 48 kHz, AC3, 5.1, 448 Kbps | Оригинал | ENG |
скриншот  скриншот  скриншот  скриншот  скриншот  

General
Unique ID : 250468253936795142803583731565807443812 (0xBC6E6E5879AD7DDC8E437718368E9F64)
Complete name : D:Video1Gold.2022.WEB-DL.2160p.HDR.seleZen.mkv
Format : Matroska
Format version : Version 4
File size : 9.38 GiB
Duration : 1 h 36 min
Overall bit rate : 13.9 Mb/s
Movie name : Gold 2022 from seleZen
Encoded date : UTC 2022-03-17 05:48:29
Writing application : mkvmerge v59.0.0 ('Shining Star') 64-bit
Writing library : libebml v1.4.2 + libmatroska v1.6.4

Video
ID : 1
Format : HEVC
Format/Info : High Efficiency Video Coding
Format profile : Main 10@L5@High
HDR format : SMPTE ST 2086, HDR10 compatible
Codec ID : V_MPEGH/ISO/HEVC
Duration : 1 h 36 min
Bit rate : 12.6 Mb/s
Width : 3 840 pixels
Height : 2 160 pixels
Display aspect ratio : 16:9
Frame rate mode : Constant
Frame rate : 24.000 FPS
Color space : YUV
Chroma subsampling : 4:2:0
Bit depth : 10 bits
Bits/(Pixel*Frame) : 0.063
Stream size : 8.47 GiB (90%)
Language : English
Default : Yes
Forced : No
Color range : Limited
Color primaries : BT.2020
Transfer characteristics : PQ
Matrix coefficients : BT.2020 non-constant
Mastering display color pri : BT.2020
Mastering display luminance : min: 0.0001 cd/m2, max: 1000 cd/m2
Maximum Content Light Level : 805 cd/m2
Maximum Frame-Average Light : 212 cd/m2

Audio #1
ID : 2
Format : AC-3
Format/Info : Audio Coding 3
Commercial name : Dolby Digital
Codec ID : A_AC3
Duration : 1 h 36 min
Bit rate mode : Constant
Bit rate : 448 kb/s
Channel(s) : 6 channels
Channel layout : L R C LFE Ls Rs
Sampling rate : 48.0 kHz
Frame rate : 31.250 FPS (1536 SPF)
Compression mode : Lossy
Stream size : 309 MiB (3%)
Title : Дубляж
Language : Russian
Service kind : Complete Main
Default : Yes
Forced : Yes

Audio #2
ID : 3
Format : E-AC-3
Format/Info : Enhanced AC-3
Commercial name : Dolby Digital Plus
Codec ID : A_EAC3
Duration : 1 h 36 min
Bit rate mode : Constant
Bit rate : 448 kb/s
Channel(s) : 6 channels
Channel layout : L R C LFE Ls Rs
Sampling rate : 48.0 kHz
Frame rate : 31.250 FPS (1536 SPF)
Compression mode : Lossy
Stream size : 309 MiB (3%)
Title : Дубляж
Language : Russian
Service kind : Complete Main
Default : No
Forced : No

Audio #3
ID : 4
Format : AC-3
Format/Info : Audio Coding 3
Commercial name : Dolby Digital
Codec ID : A_AC3
Duration : 1 h 36 min
Bit rate mode : Constant
Bit rate : 448 kb/s
Channel(s) : 6 channels
Channel layout : L R C LFE Ls Rs
Sampling rate : 48.0 kHz
Frame rate : 31.250 FPS (1536 SPF)
Compression mode : Lossy
Stream size : 309 MiB (3%)
Title : Original
Language : English
Service kind : Complete Main
Default : No
Forced : No

Text #1
ID : 5
Format : UTF-8
Codec ID : S_TEXT/UTF8
Codec ID/Info : UTF-8 Plain Text
Duration : 1 h 26 min
Bit rate : 29 b/s
Count of elements : 398
Stream size : 18.5 KiB (0%)
Title : Full
Language : Russian
Default : No
Forced : No

Text #2
ID : 6
Format : UTF-8
Codec ID : S_TEXT/UTF8
Codec ID/Info : UTF-8 Plain Text
Duration : 1 h 36 min
Bit rate : 25 b/s
Count of elements : 744
Stream size : 18.0 KiB (0%)
Language : English
Default : No
Forced : No




Скачать Жажда золота через торрент https://i116.fastpic.org/big/2022/0317/ed/afef168d2bbb5c536e80a39f706297ed.jpg Скачать, смотреть онлайн Жажда золота бесплантно в хорошем качестве Описание: В недалеком будущем мир превратился в одну огромную пустыню. Два незнакомца случайно обнаруживают огромные залежи золота. Пока ... 10 10 6
Торрент: Зарегистрирован [2022-03-17 06:16] · скачан: 135 раз
Статус: √ проверено
Размер: 9.38 GB
Как cкачать? Как скачать Жажда золота через торрент | UTorrent

% Раздел Тема Автор DL S | L
Фильмы (WEB-DL 720p, 1080p) [ 4.84 GB ] Жажда золота / Gold | Jaskier | 1080p bober100 Скачать
1 | 0
Фильмы [HD 720p, 1080p] (Хороший звук DUB, MVO) [ 8.16 GB ] Жажда золота / Gold | DUB | 1080p bober100 Скачать
1 | 0
Фильмы 2021 [DVDrip, WEB-DLRip, HDrip] (DUB, MVO) [ 747 MB ] Жажда золота / Gold | DUB | HDRip bober100 Скачать
1 | 0
Фильмы (Blu-ray, BD-Remux, HDDVD) [ 25.07 GB ] Жажда золота / Gold | DUB | BD Remux 1080p bober100 Скачать
1 | 0
Фильмы 2022-2023 [DVDrip, WEB-DLRip, HDrip] (DUB, MVO) [ 1.46 GB ] Жажда золота / Gold | DUB | DLRip bober100 Скачать
3 | 0
Фильмы [HD 720p, 1080p] (Хороший звук DUB, MVO) [ 4.52 GB ] Жажда золота / Gold | DUB | 720p bober100 Скачать
1 | 0
Фильмы 2022-2023 [DVDrip, WEB-DLRip, HDrip] (DUB, MVO) [ 1.46 GB ] Жажда золота / Gold | NewComers | DLRip Twi7ter Скачать
7 | 0

28-11-2019 20:33  


Отключить вcю реклaмy на сайте, в т.ч. и в плеере онлайн просмотра!

    Дорогой пользователь! Огромная просьба, поблагодарите релизера, оцените раздачу и оставьте свои комментарий, если Вы скачали Жажда золота через торрент бесплатно!!
    Комментировать посты могут только пользователи прошедшие не сложную регистрацию
    Показать сообщения:    


    Жажда золота через торрент
    Скачать бесплатно Жажда золота
    Жажда золота скачать торрент
    Жажда золота смотреть онлайн
    Cкачать фильм Жажда золота бесплатно
    Жажда золота скачать торрент в хорошем качестве
    Жажда золота смотреть онлайн бесплатно в хорошем качестве
    Вы не можете начинать темы
    Вы не можете отвечать на сообщения
    Вы не можете редактировать свои сообщения
    Вы не можете удалять свои сообщения
    Вы не можете голосовать в опросах
    Вы не можете прикреплять файлы к сообщениям
    Вы можете скачивать файлы
    Жажда золота / Gold [2022, Боевик, триллер, UHD WEB-DL-HEVC 2160p] Дубляж [Марафон / Кинопоиск HD] смотреть онлайн, скачать торрент picoco.icu