Достать ножи: Стеклянная луковица

MVO

Добыча

Дубляж

Уэнсдэй

1 сезон

Тор

Дубляж

13 клиническая

1 сезон

Жестокая ночь

MVO

Одни из нас

1 сезон

Deluxe

pack

Рекомендуем

30

Пиратка

ВАЖНО

ВАЖНО

Ghostwire

Пиратка

jed

RePack

nioh2

RePack

RDR2

RePack

NEED FOR SPEED™ PAYBACK

RePack

скачать торрент

Кинопоиск HD

Острые козырьки 6 сезон

6 сезон

FAR CRY 6

RePack

скачать торрент

Лицензия

скачать торрент

MVO

1

1 сезон

скачать торрент

1 сезон

скачать торрент

Лицензия

  

Робокоп / Робот-полицейский / Robocop (Пол Верховен) [1987, Фантастика, боевик, триллер, драма, криминал, UHD BDRemux 2160p, (Dolby Vision Profile 8)] [Режиссерская версия] 4xMVO (rus, ukr) +Дубляж+3xAVO

Робокоп через торрент piratbit.org

Размер: 63.19 GB | Добавлен: 10 мес. назад | Торрент скачан:60 раз
Смотреть онлайн | Скачать | Поддержите нас   

29-03-2022 03:28 Робокоп Скачать торрент  

Робокоп | Робот-полицейский
Robocop
Режиссерская версия

Год выпуска: 1987
Страна: США
Студия: Orion Pictures Corporation
Жанр: Фантастика, боевик, триллер, драма, криминал
Продолжительность: 01:43:14
Перевод(ы):
Аудио #1: Многоголосый закадровый | Blu-ray CEE
Аудио #2: Дублированый | Paramount Channel
Аудио #3: Многоголосый закадровый | СТС
Аудио #4: Многоголосый закадровый | Superbit
Аудио #5: Многоголосый закадровый | Киномания
Аудио #6: Одноголосый закадровый | Ю. Живов
Аудио #7: Одноголосый закадровый | К. Поздняков
Аудио #8: Одноголосый закадровый | Матвеев
Субтитры: Русские (2 x Full), английские

Режиссер: Пол Верховен

rating

В ролях: Питер Уэллер, Нэнси Аллен, Дэн О`Херлихи, Ронни Кокс, Кертвуд Смит, Мигель Феррер, Роберт Дукуй, Рэй Уайз, Фелтон Перри, Пол МакКрейн, Джон Дейвис, Тайриз Аллен, Иоланда Уильямс, Кевин Пейдж, Чарльз Кэррол, Джин Воланд, Нил Саммерс, Фредди Хайс, Майкл Грегори, Эдвард Эдвардс, Марк Карлтон, Ли Де Бру, Рик Либерман, Кэлвин Джанг, Дел Замора, Джесси Д. Гойнс, Дэррил Кокс, Карен Рэдклифф, Сэйдж Паркер, Лэйрд Стюарт, Джерри Хэйнс, Уильям Шокли, Донна Кигэн

Описание: Ближайшее будущее, погрязший в преступности и насилии Детройт. Полицейский Алекс Мерфи гибнет в схватке с бандой жестоких преступников. Могущественная корпорация OCP возрождает его в образе робота, в котором от человека остаются только лицо и обрывки воспоминаний. Неуязвимый благодаря новым способностям Мерфи выходит на городские улицы, чтобы поддерживать закон и порядок, но в электронном сознании человека-машины возникает новое чувство – жажда мести.

Качество: UHD BDRemux 2160p | Dolby Vision Profile 8
Формат: MKV

Видео: 3840x2160 at 23.976 fps, MPEG-H HEVC HDR, Dolby Vision Video ~ 78800 kbps avg
Аудио #01: 48 kHz, DTS, 5.1, 768 Kbps | Многоголосый закадровый, Blu-ray CEE | RUS |
Аудио #02: 48 kHz, AC3, 2.0, 192 Kbps | Дублированый, Paramount Channel | RUS |
Аудио #03: 48 kHz, AC3, 2.0, 192 Kbps | Многоголосый закадровый, СТС | RUS |
Аудио #04: 48 kHz, DTS, 5.1, 768 Kbps | Многоголосый закадровый, Superbit | RUS |
Аудио #05: 48 kHz, AC3, 5.1, 384 Kbps | Многоголосый закадровый, Киномания | RUS |
Аудио #06: 48 kHz, AC3, 5.1, 384 Kbps | Одноголосый закадровый, Ю. Живов | RUS |
Аудио #07: 48 kHz, AC3, 2.0, 192 Kbps | Одноголосый закадровый, К. Поздняков | RUS |
Аудио #08: 48 kHz, AC3, 5.1, 448 Kbps | Одноголосый закадровый, Матвеев | RUS |
Аудио #09: 48 kHz, AC3, 2.0, 192 Kbps | Многоголосый закадровый, 1+1 | UKR |
Аудио #10: 48 kHz, TrueHD, 7.1, 4559 Kbps | Оригинал | ENG |
Аудио #11: 48 kHz, AC3, 5.1, 640 Kbps | Оригинал | ENG |
скриншот  скриншот  скриншот  скриншот  скриншот  

General
Unique ID : 237839171325397054796736775229388200410 (0xB2EE287FD1FE6E4B9BB1706848AD99DA)
Complete name : D:Video1RoboCop.1987.BDREMUX.2160p.HDR.DVP8.seleZen.mkv
Format : Matroska
Format version : Version 4
File size : 63.2 GiB
Duration : 1 h 43 min
Overall bit rate mode : Variable
Overall bit rate : 87.6 Mb/s
Movie name : RoboCop 1987 from seleZen
Encoded date : UTC 2022-03-29 00:07:30
Writing application : mkvmerge v59.0.0 ('Shining Star') 64-bit
Writing library : libebml v1.4.2 + libmatroska v1.6.4

Video
ID : 1
ID in the original source m : 4117 (0x1015)
Format : HEVC
Format/Info : High Efficiency Video Coding
Format profile : Main 10@L5.1@High
HDR format : Dolby Vision, Version 1.0, dvhe.08.06, BL+RPU, Blu-ray compatible / SMPTE ST 2086, HDR10 compatible
Codec ID : V_MPEGH/ISO/HEVC
Duration : 1 h 43 min
Bit rate : 78.8 Mb/s
Width : 3 840 pixels
Height : 2 160 pixels
Display aspect ratio : 16:9
Frame rate mode : Constant
Frame rate : 23.976 (24000/1001) FPS
Color space : YUV
Chroma subsampling : 4:2:0 (Type 2)
Bit depth : 10 bits
Bits/(Pixel*Frame) : 0.396
Stream size : 56.9 GiB (90%)
Language : English
Default : No
Forced : No
Color range : Limited
Color primaries : BT.2020
Transfer characteristics : PQ
Matrix coefficients : BT.2020 non-constant
Mastering display color pri : BT.2020
Mastering display luminance : min: 0.0001 cd/m2, max: 1000 cd/m2
Maximum Content Light Level : 0 cd/m2
Maximum Frame-Average Light : 0 cd/m2
Original source medium : Blu-ray

Audio #1
ID : 2
Format : DTS
Format/Info : Digital Theater Systems
Codec ID : A_DTS
Duration : 1 h 43 min
Bit rate mode : Constant
Bit rate : 768 kb/s
Channel(s) : 6 channels
Channel layout : C L R Ls Rs LFE
Sampling rate : 48.0 kHz
Frame rate : 93.750 FPS (512 SPF)
Bit depth : 24 bits
Compression mode : Lossy
Stream size : 567 MiB (1%)
Title : MVO [Blu-ray CEE]
Language : Russian
Default : No
Forced : No

Audio #2
ID : 3
Format : AC-3
Format/Info : Audio Coding 3
Commercial name : Dolby Digital
Codec ID : A_AC3
Duration : 1 h 43 min
Bit rate mode : Constant
Bit rate : 192 kb/s
Channel(s) : 2 channels
Channel layout : L R
Sampling rate : 48.0 kHz
Frame rate : 31.250 FPS (1536 SPF)
Compression mode : Lossy
Stream size : 142 MiB (0%)
Title : Дубляж [Paramount Channel]
Language : Russian
Service kind : Complete Main
Default : Yes
Forced : Yes

Audio #3
ID : 4
Format : AC-3
Format/Info : Audio Coding 3
Commercial name : Dolby Digital
Codec ID : A_AC3
Duration : 1 h 43 min
Bit rate mode : Constant
Bit rate : 192 kb/s
Channel(s) : 2 channels
Channel layout : L R
Sampling rate : 48.0 kHz
Frame rate : 31.250 FPS (1536 SPF)
Compression mode : Lossy
Stream size : 142 MiB (0%)
Title : MVO [СТС]
Language : Russian
Service kind : Complete Main
Default : No
Forced : No

Audio #4
ID : 5
Format : DTS
Format/Info : Digital Theater Systems
Codec ID : A_DTS
Duration : 1 h 43 min
Bit rate mode : Constant
Bit rate : 768 kb/s
Channel(s) : 6 channels
Channel layout : C L R Ls Rs LFE
Sampling rate : 48.0 kHz
Frame rate : 93.750 FPS (512 SPF)
Bit depth : 24 bits
Compression mode : Lossy
Stream size : 557 MiB (1%)
Title : MVO [Superbit]
Language : Russian
Default : No
Forced : No

Audio #5
ID : 6
Format : AC-3
Format/Info : Audio Coding 3
Commercial name : Dolby Digital
Codec ID : A_AC3
Duration : 1 h 43 min
Bit rate mode : Constant
Bit rate : 384 kb/s
Channel(s) : 6 channels
Channel layout : L R C LFE Ls Rs
Sampling rate : 48.0 kHz
Frame rate : 31.250 FPS (1536 SPF)
Compression mode : Lossy
Stream size : 284 MiB (0%)
Title : MVO [Киномания]
Language : Russian
Service kind : Complete Main
Default : No
Forced : No

Audio #6
ID : 7
Format : AC-3
Format/Info : Audio Coding 3
Commercial name : Dolby Digital
Codec ID : A_AC3
Duration : 1 h 43 min
Bit rate mode : Constant
Bit rate : 384 kb/s
Channel(s) : 6 channels
Channel layout : L R C LFE Ls Rs
Sampling rate : 48.0 kHz
Frame rate : 31.250 FPS (1536 SPF)
Compression mode : Lossy
Stream size : 284 MiB (0%)
Title : AVO [Живов]
Language : Russian
Service kind : Complete Main
Default : No
Forced : No

Audio #7
ID : 8
Format : AC-3
Format/Info : Audio Coding 3
Commercial name : Dolby Digital
Codec ID : A_AC3
Duration : 1 h 43 min
Bit rate mode : Constant
Bit rate : 192 kb/s
Channel(s) : 2 channels
Channel layout : L R
Sampling rate : 48.0 kHz
Frame rate : 31.250 FPS (1536 SPF)
Compression mode : Lossy
Stream size : 142 MiB (0%)
Title : AVO [Поздняков]
Language : Russian
Service kind : Complete Main
Default : No
Forced : No

Audio #8
ID : 9
Format : AC-3
Format/Info : Audio Coding 3
Commercial name : Dolby Digital
Codec ID : A_AC3
Duration : 1 h 43 min
Bit rate mode : Constant
Bit rate : 448 kb/s
Channel(s) : 6 channels
Channel layout : L R C LFE Ls Rs
Sampling rate : 48.0 kHz
Frame rate : 31.250 FPS (1536 SPF)
Compression mode : Lossy
Stream size : 331 MiB (1%)
Title : AVO [Матвеев]
Language : Russian
Service kind : Complete Main
Default : No
Forced : No

Audio #9
ID : 10
Format : AC-3
Format/Info : Audio Coding 3
Commercial name : Dolby Digital
Codec ID : A_AC3
Duration : 1 h 43 min
Bit rate mode : Constant
Bit rate : 192 kb/s
Channel(s) : 2 channels
Channel layout : L R
Sampling rate : 48.0 kHz
Frame rate : 31.250 FPS (1536 SPF)
Compression mode : Lossy
Stream size : 142 MiB (0%)
Title : MVO [1+1]
Language : Ukrainian
Service kind : Complete Main
Default : No
Forced : No

Audio #10
ID : 11
Format : MLP FBA 16-ch
Format/Info : Meridian Lossless Packing FBA with 16-channel presentation
Commercial name : Dolby TrueHD with Dolby Atmos
Codec ID : A_TRUEHD
Duration : 1 h 43 min
Bit rate mode : Variable
Bit rate : 4 559 kb/s
Maximum bit rate : 7 476 kb/s
Channel(s) : 8 channels
Channel layout : L R C LFE Ls Rs Lb Rb
Sampling rate : 48.0 kHz
Frame rate : 1 200.000 FPS (40 SPF)
Compression mode : Lossless
Stream size : 3.29 GiB (5%)
Title : Original
Language : English
Default : No
Forced : No
Number of dynamic objects : 15
Bed channel count : 1 channel
Bed channel configuration : LFE

Audio #11
ID : 12
Format : AC-3
Format/Info : Audio Coding 3
Commercial name : Dolby Digital
Format settings : Dolby Surround EX
Codec ID : A_AC3
Duration : 1 h 43 min
Bit rate mode : Constant
Bit rate : 640 kb/s
Channel(s) : 6 channels
Channel layout : L R C LFE Ls Rs
Sampling rate : 48.0 kHz
Frame rate : 31.250 FPS (1536 SPF)
Compression mode : Lossy
Stream size : 473 MiB (1%)
Language : English
Service kind : Complete Main
Default : No
Forced : No

Text #1
ID : 13
Format : UTF-8
Codec ID : S_TEXT/UTF8
Codec ID/Info : UTF-8 Plain Text
Duration : 1 h 42 min
Bit rate : 84 b/s
Count of elements : 1192
Stream size : 63.1 KiB (0%)
Title : Full
Language : Russian
Default : No
Forced : No

Text #2
ID : 14
Format : UTF-8
Codec ID : S_TEXT/UTF8
Codec ID/Info : UTF-8 Plain Text
Duration : 1 h 36 min
Bit rate : 92 b/s
Count of elements : 1148
Stream size : 65.3 KiB (0%)
Title : Full [Перевод Алексея Матвеева]
Language : Russian
Default : No
Forced : No

Text #3
ID : 15
Format : UTF-8
Codec ID : S_TEXT/UTF8
Codec ID/Info : UTF-8 Plain Text
Duration : 1 h 36 min
Bit rate : 58 b/s
Count of elements : 1329
Stream size : 40.8 KiB (0%)
Language : English
Default : No
Forced : No

Menu
00:00:00.000 : Глава 01
00:09:50.089 : Глава 02
00:17:08.945 : Глава 03
00:24:19.458 : Глава 04
00:33:55.784 : Глава 05
00:45:15.171 : Глава 06
00:55:05.802 : Глава 07
01:01:41.114 : Глава 08
01:08:44.662 : Глава 09
01:17:26.600 : Глава 10
01:25:50.103 : Глава 11
01:34:04.472 : Глава 12




Скачать Робокоп через торрент https://i116.fastpic.org/big/2022/0329/1f/356f785ef040917627c87dc1aa741d1f.jpg Скачать, смотреть онлайн Робокоп бесплантно в хорошем качестве Описание: Ближайшее будущее, погрязший в преступности и насилии Детройт. Полицейский Алекс Мерфи гибнет в схватке с бандой жестоких ... 9.9 10 9
Info! Золотая раздача, скачанное не засчитывается.
Торрент: Зарегистрирован [2022-03-29 03:28] · скачан: 60 раз
Статус: √ проверено
Размер: 63.19 GB
Как cкачать? Как скачать Робокоп через торрент | UTorrent

28-11-2019 20:33  


Отключить вcю реклaмy на сайте, в т.ч. и в плеере онлайн просмотра!

29-03-2022 18:53 Робокоп Скачать торрент  

Еще один способ просмотра, через плеер windows- Movies and TV(Кино и ТВ):

Ставите через Microsoft Store кодек HEVC Video Extensions from Device Manufacturer, можно через win+R ms-windows-store://pdp/?ProductId=9n4wgh0z6vhq

А также из Microsoft Store ставите HEIF Image Extensions

Если нет звука, то ставите из Microsoft Store приложение Dolby Access и DTS Sound Unbound(опционально)
Дополнительно можно установить из Microsoft Store приложение Dolby Vision(Если доступно)

В итоге получаете яркие цвета в плеере windows- Movies and TV(Кино и ТВ)

Актуально для windows 10, 11. Все бесплатно и легально



    Дорогой пользователь! Огромная просьба, поблагодарите релизера, оцените раздачу и оставьте свои комментарий, если Вы скачали Робокоп через торрент бесплатно!!
    Комментировать посты могут только пользователи прошедшие не сложную регистрацию
    Показать сообщения:    


    Робокоп через торрент
    Скачать бесплатно Робокоп
    Робокоп скачать торрент
    Робокоп смотреть онлайн
    Cкачать фильм Робокоп бесплатно
    Робокоп скачать торрент в хорошем качестве
    Робокоп смотреть онлайн бесплатно в хорошем качестве
    Вы не можете начинать темы
    Вы не можете отвечать на сообщения
    Вы не можете редактировать свои сообщения
    Вы не можете удалять свои сообщения
    Вы не можете голосовать в опросах
    Вы не можете прикреплять файлы к сообщениям
    Вы можете скачивать файлы
    Робокоп / Робот-полицейский / Robocop [1987, Фантастика, боевик, триллер, драма, криминал, UHD BDRemux 2160p, ] [Режиссерская версия] 4xMVO +Дубляж+3xAVO смотреть онлайн, скачать торрент picoco.icu