Достать ножи: Стеклянная луковица

MVO

Добыча

Дубляж

Уэнсдэй

1 сезон

Тор

Дубляж

13 клиническая

1 сезон

Жестокая ночь

MVO

Одни из нас

1 сезон

Deluxe

pack

Рекомендуем

30

Пиратка

ВАЖНО

ВАЖНО

Ghostwire

Пиратка

jed

RePack

nioh2

RePack

RDR2

RePack

NEED FOR SPEED™ PAYBACK

RePack

скачать торрент

Кинопоиск HD

Острые козырьки 6 сезон

6 сезон

FAR CRY 6

RePack

скачать торрент

Лицензия

скачать торрент

MVO

1

1 сезон

скачать торрент

1 сезон

скачать торрент

Лицензия

  

Крик / Scream (Мэттью Беттинелли, Тайлер Джиллетт) [2022, Ужасы, детектив, UHD BDRemux 2160p, (Dolby Vision Profile 8)] Дубляж [Лицензия]

Крик через торрент piratbit.org

Раздают: 1 [ 0 KB/s ]
Размер: 45.34 GB | Добавлен: 9 мес. назад | Торрент скачан:73 раза
Смотреть онлайн | Скачать | Поддержите нас   

31-03-2022 04:36 Крик Скачать торрент  

Крик
Scream

Год выпуска: 2022
Страна: США
Выпущено: Lantern Entertainment, Outerbanks Entertainment, Paramount Pictures, Project X Entertainment, Radio Silence Productions, Spyglass Media Group
Жанр: Ужасы, детектив
Продолжительность: 01:54:18
Перевод: Дублированный | Лицензия
Субтитры: Русские (Forced, full), английские

Режиссер: Мэттью Беттинелли, Тайлер Джиллетт

rating

В ролях: Нив Кэмпбелл, Кортни Кокс, Дэвид Аркетт, Марли Шелтон, Мелисса Баррера, Дженна Ортега, Дилан Миннетт, Джек Куэйд, Джасмин Савой Браун, Соня Бен Аммар, Мики Мэдисон, Мэйсон Гудинг, Кайл Галлнер

Описание: Спустя 25 лет после жестоких убийств, потрясших тихий городок Вудсборо, и выхода серии культовых слэшеров на основе тех событий старшеклассница Тара подвергается нападению, такому же, как и в фильме. Узнав о случившемся, в Вудсборо возвращается её старшая сестра Сэм и просит помощи у бывшего шерифа городка Дьюи Райли в поимке нового убийцы, скрывающегося за маской Призрачного лица.

Качество: UHD BDRemux 2160p | Dolby Vision Profile 8
Формат: MKV

Видео: 3840x2160 at 23.976 fps, MPEG-H HEVC HDR, Dolby Vision Video ~ 51725 kbps avg
Аудио #01: 48 kHz, AC3, 5.1, 640 Kbps | Дублированный | Лицензия | RUS |
Аудио #02: 48 kHz, DTS-HD MA, 7.1, 4374 Kbps | Оригинал | ENG |
скриншот  скриншот  скриншот  скриншот  скриншот  

General
Unique ID : 275428283564960928758040566226105679044 (0xCF358ED18B5D62D4D2A11A24CF003CC4)
Complete name : D:Video1Scream.2022.Lic.BDREMUX.2160p.HDR.DVP8.seleZen.mkv
Format : Matroska
Format version : Version 4
File size : 45.3 GiB
Duration : 1 h 54 min
Overall bit rate mode : Variable
Overall bit rate : 56.8 Mb/s
Movie name : Scream 2022 from seleZen
Encoded date : UTC 2022-03-31 04:15:56
Writing application : mkvmerge v59.0.0 ('Shining Star') 64-bit
Writing library : libebml v1.4.2 + libmatroska v1.6.4

Video
ID : 1
ID in the original source m : 4117 (0x1015)
Format : HEVC
Format/Info : High Efficiency Video Coding
Format profile : Main 10@L5.1@High
HDR format : Dolby Vision, Version 1.0, dvhe.08.06, BL+RPU, Blu-ray compatible / SMPTE ST 2086, HDR10 compatible
Codec ID : V_MPEGH/ISO/HEVC
Duration : 1 h 54 min
Bit rate : 51.8 Mb/s
Width : 3 840 pixels
Height : 2 160 pixels
Display aspect ratio : 16:9
Frame rate mode : Constant
Frame rate : 23.976 (24000/1001) FPS
Color space : YUV
Chroma subsampling : 4:2:0 (Type 2)
Bit depth : 10 bits
Bits/(Pixel*Frame) : 0.260
Stream size : 41.3 GiB (91%)
Language : English
Default : No
Forced : No
Color range : Limited
Color primaries : BT.2020
Transfer characteristics : PQ
Matrix coefficients : BT.2020 non-constant
Mastering display color pri : Display P3
Mastering display luminance : min: 0.0001 cd/m2, max: 1000 cd/m2
Maximum Content Light Level : 192 cd/m2
Maximum Frame-Average Light : 82 cd/m2
Original source medium : Blu-ray

Audio #1
ID : 2
Format : AC-3
Format/Info : Audio Coding 3
Commercial name : Dolby Digital
Codec ID : A_AC3
Duration : 1 h 54 min
Bit rate mode : Constant
Bit rate : 640 kb/s
Channel(s) : 6 channels
Channel layout : L R C LFE Ls Rs
Sampling rate : 48.0 kHz
Frame rate : 31.250 FPS (1536 SPF)
Compression mode : Lossy
Stream size : 523 MiB (1%)
Title : Дубляж [License]
Language : Russian
Service kind : Complete Main
Default : Yes
Forced : Yes

Audio #2
ID : 3
Format : DTS XLL
Format/Info : Digital Theater Systems
Commercial name : DTS-HD Master Audio
Codec ID : A_DTS
Duration : 1 h 54 min
Bit rate mode : Variable
Bit rate : 4 374 kb/s
Channel(s) : 8 channels
Channel layout : C L R LFE Lb Rb Lss Rss
Sampling rate : 48.0 kHz
Frame rate : 93.750 FPS (512 SPF)
Bit depth : 24 bits
Compression mode : Lossless
Stream size : 3.49 GiB (8%)
Title : Original
Language : English
Default : No
Forced : No

Text #1
ID : 4
Format : UTF-8
Codec ID : S_TEXT/UTF8
Codec ID/Info : UTF-8 Plain Text
Duration : 1 h 47 min
Bit rate : 2 b/s
Count of elements : 49
Stream size : 2.08 KiB (0%)
Title : Forced
Language : Russian
Default : Yes
Forced : Yes

Text #2
ID : 5
Format : UTF-8
Codec ID : S_TEXT/UTF8
Codec ID/Info : UTF-8 Plain Text
Duration : 1 h 53 min
Bit rate : 90 b/s
Count of elements : 1497
Stream size : 74.7 KiB (0%)
Title : Full
Language : Russian
Default : No
Forced : No

Text #3
ID : 6
Format : UTF-8
Codec ID : S_TEXT/UTF8
Codec ID/Info : UTF-8 Plain Text
Duration : 1 h 46 min
Bit rate : 58 b/s
Count of elements : 1475
Stream size : 45.2 KiB (0%)
Title : Full
Language : English
Default : No
Forced : No

Menu
00:00:00.000 : Chapter 1
00:11:18.970 : Chapter 2
00:19:12.568 : Chapter 3
00:31:06.364 : Chapter 4
00:38:23.551 : Chapter 5
00:44:21.826 : Chapter 6
00:53:05.599 : Chapter 7
00:59:44.289 : Chapter 8
01:08:48.583 : Chapter 9
01:16:27.708 : Chapter 10
01:26:17.339 : Chapter 11
01:38:30.780 : Chapter 12
01:48:02.976 : Chapter 13




Скачать Крик через торрент https://i116.fastpic.org/big/2022/0331/e6/f9936f41651415d37b03bf45a38ae9e6.jpg Скачать, смотреть онлайн Крик бесплантно в хорошем качестве Описание: Спустя 25 лет после жестоких убийств, потрясших тихий городок Вудсборо, и выхода серии культовых слэшеров на основе тех событий ... 10 10 6
Торрент: Зарегистрирован [2022-03-31 04:36] · скачан: 73 раз
Статус: √ проверено
Размер: 45.34 GB
Как cкачать? Как скачать Крик через торрент | UTorrent

28-11-2019 20:33  


Отключить вcю реклaмy на сайте, в т.ч. и в плеере онлайн просмотра!

    Дорогой пользователь! Огромная просьба, поблагодарите релизера, оцените раздачу и оставьте свои комментарий, если Вы скачали Крик через торрент бесплатно!!
    Комментировать посты могут только пользователи прошедшие не сложную регистрацию
    Показать сообщения:    


    Крик через торрент
    Скачать бесплатно Крик
    Крик скачать торрент
    Крик смотреть онлайн
    Cкачать фильм Крик бесплатно
    Крик скачать торрент в хорошем качестве
    Крик смотреть онлайн бесплатно в хорошем качестве
    Вы не можете начинать темы
    Вы не можете отвечать на сообщения
    Вы не можете редактировать свои сообщения
    Вы не можете удалять свои сообщения
    Вы не можете голосовать в опросах
    Вы не можете прикреплять файлы к сообщениям
    Вы можете скачивать файлы
    Крик / Scream [2022, Ужасы, детектив, UHD BDRemux 2160p, ] Дубляж [Лицензия] смотреть онлайн, скачать торрент picoco.icu