Достать ножи: Стеклянная луковица

MVO

Добыча

Дубляж

Уэнсдэй

1 сезон

Тор

Дубляж

13 клиническая

1 сезон

Жестокая ночь

MVO

Одни из нас

1 сезон

Deluxe

pack

Рекомендуем

30

Пиратка

ВАЖНО

ВАЖНО

Ghostwire

Пиратка

jed

RePack

nioh2

RePack

RDR2

RePack

NEED FOR SPEED™ PAYBACK

RePack

скачать торрент

Кинопоиск HD

Острые козырьки 6 сезон

6 сезон

FAR CRY 6

RePack

скачать торрент

Лицензия

скачать торрент

MVO

1

1 сезон

скачать торрент

1 сезон

скачать торрент

Лицензия

  

Звездные войны: Последние джедаи / Star Wars: Episode VIII - The Last Jedi (Райан Джонсон) [2017, фантастика, фэнтези, боевик, приключения, UHD BD Remux 2160p, (Dolby Vision Profile 8)] [FRA Transfer] Дубляж [Лицензия]

Звездные войны: Последние джедаи через торрент piratbit.org

Размер: 54.36 GB | Добавлен: 10 мес. назад | Торрент скачан:42 раза
Смотреть онлайн | Скачать | Поддержите нас   

05-04-2022 09:19 Звездные войны: Последние джедаи Скачать торрент  

Звездные войны: Последние джедаи
Star Wars: Episode VIII - The Last Jedi

Год выпуска: 2017
Страна: США
Студия: Lucasfilm Ltd., Ram Bergman Productions, Walt Disney Pictures
Жанр: фантастика, фэнтези, боевик, приключения
Продолжительность: 02:31:51
Перевод: Дублированный | Лицензия
Субтитры: Русские (forced, full), английские

Режиссер: Райан Джонсон

rating

В ролях: Марк Хэмилл, Кэрри Фишер, Адам Драйвер, Дэйзи Ридли, Джон Бойега, Оскар Айзек, Энди Серкис, Лупита Нионго, Донал Глисон, Энтони Дэниелс, Питер Мейхью, Келли Мари Трэн, Лора Дерн, Бенисио Дель Торо, Фрэнк Оз, Гвендолин Кристи, Йонас Суотамо, Аманда Лоуренс, Джимми Ви

Описание: В далекой-далекой галактике снова неспокойно. Реваншисты из Первого Ордена демонстрируют звериный оскал империализма, размахивая жупелом военной угрозы и с особым цинизмом проводя агрессивную политику геноцида против свободолюбивых народов Республики. Их тлетворное влияние ощущается буквально повсюду. Лишь небольшая кучка повстанцев по главе с генералом Леей Органой отчаянно сопротивляется гидре империалистической военщины. И пока остатки флота Сопротивления поочередно превращаются в радиоактивный пепел под ударами Звездных Разрушителей, бывшая мусорщица Рей отправляется на планету Эч-То, чтобы встретиться с последним рыцарем-джедаем Люком Скайуокером, овладеть Силой по ускоренной методике и вернуть надежду на светлое будущее.

Качество: UHD BD Remux 2160p | Dolby Vision Profile 8 | FRA Transfer
Формат: MKV

Видео: 3840x2160 at 23.976 fps, MPEG-H HEVC HDR, Dolby Vision ~ 46000 kbps avg
Аудио #01: 48 kHz, AC3, 5.1, 640 Kbps | Дублированный | Лицензия | RUS |
Аудио #02: 48 kHz, TrueHD, 7.1, 3941 Kbps | Оригинал | ENG |
Аудио #03: 48 kHz, AC3, 5.1, 640 Kbps | Оригинал | ENG |
скриншот  скриншот  скриншот  скриншот  скриншот  

General
Unique ID : 221145096348921999952373846243659348569 (0xA65EFF0E41879FB82AF06571612DFA59)
Complete name : D:Video1Star.Wars.The.Last.Jedi.2017.Lic.BDREMUX.2160p.HDR.DVP8.seleZen.mkv
Format : Matroska
Format version : Version 4
File size : 54.4 GiB
Duration : 2 h 31 min
Overall bit rate mode : Variable
Overall bit rate : 51.2 Mb/s
Movie name : Star Wars The Last Jedi 2017 from seleZen
Encoded date : UTC 2022-04-05 08:04:50
Writing application : mkvmerge v59.0.0 ('Shining Star') 64-bit
Writing library : libebml v1.4.2 + libmatroska v1.6.4

Video
ID : 1
ID in the original source m : 4117 (0x1015)
Format : HEVC
Format/Info : High Efficiency Video Coding
Format profile : Main 10@L5.1@High
HDR format : Dolby Vision, Version 1.0, dvhe.08.06, BL+RPU, Blu-ray compatible / SMPTE ST 2086, HDR10 compatible
Codec ID : V_MPEGH/ISO/HEVC
Duration : 2 h 31 min
Bit rate : 46.0 Mb/s
Width : 3 840 pixels
Height : 2 160 pixels
Display aspect ratio : 16:9
Frame rate mode : Constant
Frame rate : 23.976 (24000/1001) FPS
Color space : YUV
Chroma subsampling : 4:2:0 (Type 2)
Bit depth : 10 bits
Bits/(Pixel*Frame) : 0.231
Stream size : 48.7 GiB (90%)
Language : English
Default : No
Forced : No
Color range : Limited
Color primaries : BT.2020
Transfer characteristics : PQ
Matrix coefficients : BT.2020 non-constant
Mastering display color pri : Display P3
Mastering display luminance : min: 0.0020 cd/m2, max: 1000 cd/m2
Maximum Content Light Level : 0 cd/m2
Maximum Frame-Average Light : 0 cd/m2
Original source medium : Blu-ray

Audio #1
ID : 2
Format : AC-3
Format/Info : Audio Coding 3
Commercial name : Dolby Digital
Codec ID : A_AC3
Duration : 2 h 31 min
Bit rate mode : Constant
Bit rate : 640 kb/s
Channel(s) : 6 channels
Channel layout : L R C LFE Ls Rs
Sampling rate : 48.0 kHz
Frame rate : 31.250 FPS (1536 SPF)
Compression mode : Lossy
Stream size : 695 MiB (1%)
Title : Дубляж [License]
Language : Russian
Service kind : Complete Main
Default : Yes
Forced : Yes

Audio #2
ID : 3
Format : MLP FBA 16-ch
Format/Info : Meridian Lossless Packing FBA with 16-channel presentation
Commercial name : Dolby TrueHD with Dolby Atmos
Codec ID : A_TRUEHD
Duration : 2 h 31 min
Bit rate mode : Variable
Bit rate : 3 941 kb/s
Maximum bit rate : 5 853 kb/s
Channel(s) : 8 channels
Channel layout : L R C LFE Ls Rs Lb Rb
Sampling rate : 48.0 kHz
Frame rate : 1 200.000 FPS (40 SPF)
Compression mode : Lossless
Stream size : 4.18 GiB (8%)
Title : Original
Language : English
Default : No
Forced : No
Number of dynamic objects : 13
Bed channel count : 1 channel
Bed channel configuration : LFE

Audio #3
ID : 4
Format : AC-3
Format/Info : Audio Coding 3
Commercial name : Dolby Digital
Codec ID : A_AC3
Duration : 2 h 31 min
Bit rate mode : Constant
Bit rate : 640 kb/s
Channel(s) : 6 channels
Channel layout : L R C LFE Ls Rs
Sampling rate : 48.0 kHz
Frame rate : 31.250 FPS (1536 SPF)
Compression mode : Lossy
Stream size : 695 MiB (1%)
Language : English
Service kind : Complete Main
Default : No
Forced : No

Text #1
ID : 5
Format : UTF-8
Codec ID : S_TEXT/UTF8
Codec ID/Info : UTF-8 Plain Text
Duration : 2 h 22 min
Bit rate : 1 b/s
Count of elements : 16
Stream size : 1.05 KiB (0%)
Title : Forced
Language : Russian
Default : Yes
Forced : Yes

Text #2
ID : 6
Format : UTF-8
Codec ID : S_TEXT/UTF8
Codec ID/Info : UTF-8 Plain Text
Duration : 2 h 20 min
Bit rate : 64 b/s
Count of elements : 1580
Stream size : 66.9 KiB (0%)
Title : Full [iTunes]
Language : Russian
Default : No
Forced : No

Text #3
ID : 7
Format : UTF-8
Codec ID : S_TEXT/UTF8
Codec ID/Info : UTF-8 Plain Text
Duration : 2 h 23 min
Bit rate : 73 b/s
Count of elements : 1980
Stream size : 77.4 KiB (0%)
Title : SDH [iTunes]
Language : Russian
Default : No
Forced : No

Text #4
ID : 8
Format : UTF-8
Codec ID : S_TEXT/UTF8
Codec ID/Info : UTF-8 Plain Text
Duration : 2 h 20 min
Bit rate : 39 b/s
Count of elements : 1569
Stream size : 40.4 KiB (0%)
Title : Full
Language : English
Default : No
Forced : No

Text #5
ID : 9
Format : UTF-8
Codec ID : S_TEXT/UTF8
Codec ID/Info : UTF-8 Plain Text
Duration : 2 h 23 min
Bit rate : 45 b/s
Count of elements : 1897
Stream size : 47.9 KiB (0%)
Title : SDH
Language : English
Default : No
Forced : No

Text #6
ID : 10
Format : UTF-8
Codec ID : S_TEXT/UTF8
Codec ID/Info : UTF-8 Plain Text
Duration : 2 h 23 min
Bit rate : 64 b/s
Count of elements : 1898
Stream size : 68.3 KiB (0%)
Title : SDH Colored
Language : English
Default : No
Forced : No

Menu
00:00:00.000 : Глава 01
00:00:18.644 : Глава 02
00:01:45.731 : Глава 03
00:03:11.817 : Глава 04
00:07:43.296 : Глава 05
00:12:48.434 : Глава 06
00:13:44.574 : Глава 07
00:16:29.280 : Глава 08
00:19:59.281 : Глава 09
00:22:51.370 : Глава 10
00:26:04.980 : Глава 11
00:27:22.850 : Глава 12
00:31:24.758 : Глава 13
00:32:54.681 : Глава 14
00:35:27.667 : Глава 15
00:38:11.498 : Глава 16
00:41:53.428 : Глава 17
00:44:29.542 : Глава 18
00:46:51.475 : Глава 19
00:51:41.932 : Глава 20
00:53:50.060 : Глава 21
00:55:41.505 : Глава 22
00:57:39.581 : Глава 23
00:59:16.636 : Глава 24
01:02:05.847 : Глава 25
01:03:07.701 : Глава 26
01:05:41.729 : Глава 27
01:07:03.478 : Глава 28
01:10:25.721 : Глава 29
01:13:30.323 : Глава 30
01:17:43.450 : Глава 31
01:20:53.057 : Глава 32
01:24:17.970 : Глава 33
01:26:23.220 : Глава 34
01:27:59.524 : Глава 35
01:30:49.361 : Глава 36
01:32:54.569 : Глава 37
01:35:53.706 : Глава 38
01:37:10.616 : Глава 39
01:39:12.864 : Глава 40
01:42:07.663 : Глава 41
01:45:03.714 : Глава 42
01:49:35.694 : Глава 43
01:52:20.609 : Глава 44
01:56:04.749 : Глава 45
01:58:52.083 : Глава 46
02:03:11.134 : Глава 47
02:06:39.759 : Глава 48
02:11:43.604 : Глава 49
02:15:12.104 : Глава 50
02:20:16.700 : Глава 51
02:23:39.694 : Глава 52




Скачать Звездные войны: Последние джедаи через торрент https://i116.fastpic.org/big/2022/0405/47/049761b7b1fc754a2ee998fabd681247.jpg Скачать, смотреть онлайн Звездные войны: Последние джедаи бесплантно в хорошем качестве Описание: В далекой-далекой галактике снова неспокойно. Реваншисты из Первого Ордена демонстрируют звериный оскал империализма, размахивая ... 10 10 4
Info! Золотая раздача, скачанное не засчитывается.
Торрент: Зарегистрирован [2022-04-05 09:19] · скачан: 42 раз
Статус: √ проверено
Размер: 54.36 GB
Как cкачать? Как скачать Звездные войны: Последние джедаи через торрент | UTorrent

% Раздел Тема Автор DL S | L
Фильмы (HD 720p, 1080p) (48-60 fps) [ 4.97 GB ] Звездные войны: Эпизод 8 - Последние Джедаи / Star Wars: Episode VIII - The Last Jedi | Дубляж | 720p / 60 FPS slaventi-69 Скачать
1 | 1
Ultra HD (UHD: 2K, 4K, 8K) [ 69.43 GB ] Звёздные войны: Последние джедаи / Star Wars: Episode VIII - The Last Jedi | DUB | 2160p sheker187 Скачать
1 | 1
Ultra HD (UHD: 2K, 4K, 8K) [ 49.47 GB ] Звёздные войны: Последние джедаи / Star Wars: Episode VIII - The Last Jedi | DUB | 2160p sheker187 Скачать
1 | 0
Фильмы [HD 720p, 1080p] (Хороший звук DUB, MVO) [ 7.86 GB ] Звездные войны: Последние джедаи / Star Wars: Episode VIII - The Last Jedi | AVO | 720p, Dub, 3 x AVO morfyi Скачать
1 | 0
Фильмы 2017 [DVDrip, WEB-DLRip, HDrip] (DUB, MVO) [ 4.24 GB ] Звездные войны: Последние джедаи / Star Wars: Episode VIII - The Last Jedi | AVO | BDRip-AVC killermax2013 Скачать
2 | 0
Ultra HD (UHD: 2K, 4K, 8K) [ 33.11 GB ] Звёздные войны: Последние джедаи / Star Wars: Episode VIII - The Last Jedi | DUB + AVO | 2160p sheker187 Скачать
1 | 0
Ultra HD (UHD: 2K, 4K, 8K) [ 60.4 GB ] Звёздные войны: Последние джедаи / Star Wars: Episode VIII - The Last Jedi | DUB | 2160p sheker187 Скачать
1 | 0

28-11-2019 20:33  


Отключить вcю реклaмy на сайте, в т.ч. и в плеере онлайн просмотра!

    Дорогой пользователь! Огромная просьба, поблагодарите релизера, оцените раздачу и оставьте свои комментарий, если Вы скачали Звездные войны: Последние джедаи через торрент бесплатно!!
    Комментировать посты могут только пользователи прошедшие не сложную регистрацию
    Показать сообщения:    


    Звездные войны: Последние джедаи через торрент
    Скачать бесплатно Звездные войны: Последние джедаи
    Звездные войны: Последние джедаи скачать торрент
    Звездные войны: Последние джедаи смотреть онлайн
    Cкачать фильм Звездные войны: Последние джедаи бесплатно
    Звездные войны: Последние джедаи скачать торрент в хорошем качестве
    Звездные войны: Последние джедаи смотреть онлайн бесплатно в хорошем качестве
    Вы не можете начинать темы
    Вы не можете отвечать на сообщения
    Вы не можете редактировать свои сообщения
    Вы не можете удалять свои сообщения
    Вы не можете голосовать в опросах
    Вы не можете прикреплять файлы к сообщениям
    Вы можете скачивать файлы
    Звездные войны: Последние джедаи / Star Wars: Episode VIII - The Last Jedi [2017, фантастика, фэнтези, боевик, приключения, UHD BD Remux 2160p, ] [FRA Transfer] Дубляж [Лицензия] смотреть онлайн, скачать торрент picoco.icu