Достать ножи: Стеклянная луковица

MVO

Добыча

Дубляж

Уэнсдэй

1 сезон

Тор

Дубляж

13 клиническая

1 сезон

Жестокая ночь

MVO

Одни из нас

1 сезон

Deluxe

pack

Рекомендуем

30

Пиратка

ВАЖНО

ВАЖНО

Ghostwire

Пиратка

jed

RePack

nioh2

RePack

RDR2

RePack

NEED FOR SPEED™ PAYBACK

RePack

скачать торрент

Кинопоиск HD

Острые козырьки 6 сезон

6 сезон

FAR CRY 6

RePack

скачать торрент

Лицензия

скачать торрент

MVO

1

1 сезон

скачать торрент

1 сезон

скачать торрент

Лицензия

  

Бэтмен / The Batman (Мэтт Ривз) [2022, Боевик, драма, криминал, детектив, UHD WEB-DL-HEVC 2160p, (HDR10+)] MVO [HDRezka]

Бэтмен через торрент piratbit.org

Раздают: 2 [ 0 KB/s ]
Размер: 19.97 GB | Добавлен: 9 мес. назад | Торрент скачан:679 раз
Смотреть онлайн | Скачать | Поддержите нас   

12-04-2022 17:10 Бэтмен Скачать торрент  

Бэтмен
The Batman

Год выпуска: 2022
Страна: США
Выпущено: Warner Bros.6th & Idaho Productions, DC Comics
Жанр: Боевик, драма, криминал, детектив
Продолжительность: 02:56:11
Перевод: Профессиональный (многоголосый) | HDRezka
Субтитры: Русские (Full, Forced), английские (Full, SDH)

Режиссер: Мэтт Ривз

rating

В ролях: Роберт Паттинсон, Зои Кравиц, Колин Фаррелл, Джеффри Райт, Пол Дано, Джейми Лоусон, Энди Серкис, Джон Туртурро, Питер Сарсгаард, Кон О’Нилл, Макс Карвер, Чарли Карвер, Марк Киллин

Описание: Два года борьбы с преступностью под маской Бэтмена приводят Брюса Уэйна в самые темные закоулки Готэм-сити. Когда объявляется загадочный убийца, угрожающий элите города, Бэтмен погружается в недра криминального мира, где на его пути оказывается Женщина-кошка Селина Кайл, Освальд Кобблпот, известный как Пингвин, Кармайн Фальконе и Эдвард Нэштон — он же Загадочник. С помощью своих союзников — Альфреда Пенниворта и лейтенанта Джеймса Гордона — Уэйну предстоит разоблачить злодея и восстановить справедливость среди коррумпированной власти, отравляющей жизнь Готэма.

Качество: UHD WEB-DL-HEVC 2160p | HDR10+
Формат: MKV

Видео: MPEG-H HEVC, ~ 14.7 Мбит/с, 3840x1600, HDR10 Plus, 23.976 кадр/с, 10 бит
Аудио 1: Русский, AC-3, 48 kHz, 6 ch, 448 kbps - HDRezka
Аудио 2: English, E-AC-3 JOC, 48 kHz, 6 ch, 768 kbps - Original
скриншот  скриншот  скриншот  скриншот  скриншот  

General
Unique ID : 287651727145608938756405585445096326216 (0xD867B51DD4E12E5011FBFFD3CE990448)
Complete name : C:\Users\Wild_Cat\Desktop\The Batman (2022) 4K, HDR10 Plus. By Wild_Cat.mkv
Format : Matroska
Format version : Version 4
File size : 20.0 GiB
Duration : 2 h 56 min
Overall bit rate : 16.2 Mb/s
Movie name : The Batman (2022) By Wild_Cat
Encoded date : UTC 2022-04-19 02:02:56
Writing application : mkvmerge v67.0.0 ('Under Stars') 64-bit
Writing library : libebml v1.4.2 + libmatroska v1.6.4
Cover : Yes
Attachments : cover.jpg / cover_land.jpg / small_cover.jpg / small_cover_land.jpg

Video
ID : 1
Format : HEVC
Format/Info : High Efficiency Video Coding
Format profile : Main 10@L5@Main
HDR format : SMPTE ST 2094 App 4, Version 1, HDR10+ Profile B compatible
Codec ID : V_MPEGH/ISO/HEVC
Duration : 2 h 56 min
Bit rate : 15.0 Mb/s
Width : 3 840 pixels
Height : 1 600 pixels
Display aspect ratio : 2.40:1
Frame rate mode : Constant
Frame rate : 23.976 (24000/1001) FPS
Color space : YUV
Chroma subsampling : 4:2:0
Bit depth : 10 bits
Bits/(Pixel*Frame) : 0.102
Stream size : 18.5 GiB (92%)
Title : by Wild_Cat
Language : Multiple languages
Default : Yes
Forced : No
Color range : Limited
Color primaries : BT.2020
Transfer characteristics : PQ
Matrix coefficients : BT.2020 non-constant
Mastering display color pri : Display P3
Mastering display luminance : min: 0.0001 cd/m2, max: 1000 cd/m2
Maximum Content Light Level : 413 cd/m2
Maximum Frame-Average Light : 65 cd/m2

Audio #1
ID : 2
Format : AC-3
Format/Info : Audio Coding 3
Commercial name : Dolby Digital
Codec ID : A_AC3
Duration : 2 h 56 min
Bit rate mode : Constant
Bit rate : 448 kb/s
Channel(s) : 6 channels
Channel layout : L R C LFE Ls Rs
Sampling rate : 48.0 kHz
Frame rate : 31.250 FPS (1536 SPF)
Compression mode : Lossy
Stream size : 565 MiB (3%)
Title : MVO - HDRezka
Language : Russian
Service kind : Complete Main
Default : Yes
Forced : No

Audio #2
ID : 3
Format : E-AC-3 JOC
Format/Info : Enhanced AC-3 with Joint Object Coding
Commercial name : Dolby Digital Plus with Dolby Atmos
Codec ID : A_EAC3
Duration : 2 h 56 min
Bit rate mode : Constant
Bit rate : 768 kb/s
Channel(s) : 6 channels
Channel layout : L R C LFE Ls Rs
Sampling rate : 48.0 kHz
Frame rate : 31.250 FPS (1536 SPF)
Compression mode : Lossy
Delay relative to video : 24 ms
Stream size : 968 MiB (5%)
Title : Original
Language : English
Service kind : Complete Main
Default : No
Forced : No
Complexity index : 16
Number of dynamic objects : 15
Bed channel count : 1 channel
Bed channel configuration : LFE

Text #1
ID : 4
Format : UTF-8
Codec ID : S_TEXT/UTF8
Codec ID/Info : UTF-8 Plain Text
Duration : 2 h 44 min
Bit rate : 84 b/s
Count of elements : 1896
Stream size : 101 KiB (0%)
Title : Русский (Full)
Language : Russian
Default : No
Forced : No

Text #2
ID : 5
Format : UTF-8
Codec ID : S_TEXT/UTF8
Codec ID/Info : UTF-8 Plain Text
Duration : 2 h 34 min
Bit rate : 3 b/s
Count of elements : 109
Stream size : 4.35 KiB (0%)
Title : Русский (Forced)
Language : Russian
Default : Yes
Forced : No

Text #3
ID : 6
Format : UTF-8
Codec ID : S_TEXT/UTF8
Codec ID/Info : UTF-8 Plain Text
Duration : 2 h 43 min
Bit rate : 45 b/s
Count of elements : 2040
Stream size : 54.9 KiB (0%)
Title : English (Full)
Language : English
Default : No
Forced : No

Text #4
ID : 7
Format : UTF-8
Codec ID : S_TEXT/UTF8
Codec ID/Info : UTF-8 Plain Text
Duration : 2 h 55 min
Bit rate : 53 b/s
Count of elements : 2573
Stream size : 69.5 KiB (0%)
Title : English (SDH)
Language : English
Default : No
Forced : No




Скачать Бэтмен через торрент https://i117.fastpic.org/big/2022/0419/1c/85aba9c8aa4df787b4bd122a4158641c.jpg Скачать, смотреть онлайн Бэтмен бесплантно в хорошем качестве Описание: Два года борьбы с преступностью под маской Бэтмена приводят Брюса Уэйна в самые темные закоулки Готэм-сити. Когда объявляется ... 9.7 10 22
Info! Золотая раздача, скачанное не засчитывается.
Торрент: Зарегистрирован [2022-04-19 03:27] · скачан: 679 раз
Статус: √ проверено
Размер: 19.97 GB
Как cкачать? Как скачать Бэтмен через торрент | UTorrent

% Раздел Тема Автор DL S | L
Ultra HD (UHD: 2K, 4K, 8K) [ 69.04 GB ] Бэтмен / The Batman | Jaskier | 2160p bober100 Скачать
2 | 0
Фильмы 2022-2023 [DVDrip, WEB-DLRip, HDrip] (DUB, MVO) [ 1.46 GB ] Бэтмен / The Batman | HDRezka Studio | BDRip bober100 Скачать
1 | 0
Фильмы 2022-2023 [DVDrip, WEB-DLRip, HDrip] (DUB, MVO) [ 2.9 GB ] Бэтмен / The Batman | HDRezka Studio | BDRip bober100 Скачать
2 | 0
Фильмы 2022-2023 [DVDrip, WEB-DLRip, HDrip] (DUB, MVO) [ 2.9 GB ] Бэтмен / The Batman | Jaskier | BDRip bober100 Скачать
1 | 0
Фильмы 2022-2023 [DVDrip, WEB-DLRip, HDrip] (DUB, MVO) [ 2.18 GB ] Бэтмен / The Batman | Jaskier | BDRip bober100 Скачать
1 | 0
Фильмы 2022-2023 [DVDrip, WEB-DLRip, HDrip] (DUB, MVO) [ 1.46 GB ] Бэтмен / The Batman | Jaskier | BDRip bober100 Скачать
1 | 0
Ultra HD (UHD: 2K, 4K, 8K) [ 31.96 GB ] Бэтмен / The Batman | HDRezka Studio | 2160p, (Dolby Vision TV bober100 Скачать
2 | 0

28-11-2019 20:33  


Отключить вcю реклaмy на сайте, в т.ч. и в плеере онлайн просмотра!

    Дорогой пользователь! Огромная просьба, поблагодарите релизера, оцените раздачу и оставьте свои комментарий, если Вы скачали Бэтмен через торрент бесплатно!!
    Комментировать посты могут только пользователи прошедшие не сложную регистрацию
    Показать сообщения:    


    Бэтмен через торрент
    Скачать бесплатно Бэтмен
    Бэтмен скачать торрент
    Бэтмен смотреть онлайн
    Cкачать фильм Бэтмен бесплатно
    Бэтмен скачать торрент в хорошем качестве
    Бэтмен смотреть онлайн бесплатно в хорошем качестве
    Вы не можете начинать темы
    Вы не можете отвечать на сообщения
    Вы не можете редактировать свои сообщения
    Вы не можете удалять свои сообщения
    Вы не можете голосовать в опросах
    Вы не можете прикреплять файлы к сообщениям
    Вы можете скачивать файлы
    Бэтмен / The Batman [2022, Боевик, драма, криминал, детектив, UHD WEB-DL-HEVC 2160p, ] MVO [HDRezka] смотреть онлайн, скачать торрент picoco.icu