Всегда рабочее зеркало без VPN и Proxy просто перед .vidak.icu напиши любое слово или цифру, Пример http://v4qe.vidak.icu

MVO

2 сезон

1 сезон

1

1 сезон

iTunes

2 сезон

13

1 сезон

Распродажа

pack

Рекомендуем

Пиратка

30

ВАЖНО

RePack

MK11

RePack

jed

RePack

fifa19

RePack

RDR2

RePack

NEED FOR SPEED™ PAYBACK

Кинопоиск HD

6 сезон

 Острые козырьки 6 сезон

Все сериалы

все сериалы на PB.wtf

RePack

FAR CRY 5

Anonymous, нам критически не хватает 5601 руб. на оплату серверов и переферии за Апрель, помоги нам пожалуйста, вся надежда только на тебя. В благодарность мы отключим тебе всю рекламу на сайте!

×
  
Magnet ссылка

Лунные приключения / Moonbound (Али Самади Ахади) [2021, Мультфильм, семейный, приключения, WEB-DL 1080p] DUB [iTunes] piratbit.org

Лунные приключения через торрент piratbit.org

Раздают: 8 [ 120 KB/s ]
Размер: 4.29 GB | Добавлен: 1 мес. 1 д. назад | Торрент скачан:123 раза
Смотреть онлайн Лунные приключения | Скачать    Ребята, помогите собрать деньги на оплату серверов!!!

20-04-2022 13:25 Лунные приключения Скачать торрент  

Лунные приключения
Moonbound

Год выпуска: 2021
Страна: Германия, Австрия
Выпущено: Brave New Work, Coop99 Filmproduktion, Little Dream Entertainment
Жанр: Мультфильм, семейный, приключения
Продолжительность: 01:24:18
Перевод: Дублированный | iTunes
Субтитры: отсутствуют

Режиссер: Али Самади Ахади

rating

В ролях: Лилиан Гартнер, Элизабет Канеттис, Алекс Лэ, Говард Найтинголл, Синди Робинсон, Дрю Сарич, Майкл Смулик , Барбара Спитц, Рафаэль фон Бэрген

Описание: Пока взрослые только мечтают покорять космос, дети уже во всю странствуют среди звезд! Юная девочка и ее старший брат отправляются в невероятное путешествие в другие миры. Оказавшись в стране, спрятанной в облаках, они знакомятся с чудесными обитателями волшебного замка и великолепной королевой Луны. По ее поручению дети отправляются еще дальше — на далекие планеты и в чужие миры. Герои забрались так далеко, но как им вернуться домой? Возможно, только лунная дорожка, указывающая направление к самому желанному в жизни любого человека, укажет им путь.

Качество: WEB-DL 1080p
Формат: MKV

Видео: MPEG-4 AVC, ~ 6511 Кбит/с, 1912x1028, 24.000 fps
Аудио#1 Rus: 48 kHz, AC3 Dolby Digital, 3/2 (L, C, R, l, r) + LFE ch, ~384 Kbps
Аудио#2 Eng: 48 kHz, AC3 Dolby Digital, 3/2 (L, C, R, l, r) + LFE ch, ~384 Kbps
скриншот  скриншот  скриншот  скриншот  

Complete name : Lunnyie.priklyucheniya.2021.WEB-DL.1080p.ELEKTRI4KA.UNIONGANG.mkv
Format : Matroska
Format version : Version 4
File size : 4.29 GiB
Duration : 1 h 24 min
Overall bit rate : 7 281 kb/s
Movie name : Lunnyie.priklyucheniya.2021.WEB-DL.1080p.ELEKTRI4KA.UNIONGANG.
Encoded date : UTC 2022-04-20 10:00:11
Writing application : mkvmerge v8.3.0 ('Over the Horizon') 32bit
Writing library : libebml v1.3.1 + libmatroska v1.4.2

Video
ID : 1
Format : AVC
Format/Info : Advanced Video Codec
Format profile : High@L4
Format settings : CABAC / 4 Ref Frames
Format settings, CABAC : Yes
Format settings, Reference frames : 4 frames
Codec ID : V_MPEG4/ISO/AVC
Duration : 1 h 24 min
Bit rate : 6 511 kb/s
Width : 1 912 pixels
Height : 1 028 pixels
Display aspect ratio : 1.85:1
Frame rate mode : Constant
Frame rate : 24.000 FPS
Color space : YUV
Chroma subsampling : 4:2:0
Bit depth : 8 bits
Scan type : Progressive
Bits/(Pixel*Frame) : 0.138
Stream size : 3.83 GiB (89%)
Default : Yes
Forced : No
Color range : Limited
Color primaries : BT.709
Transfer characteristics : BT.709
Matrix coefficients : BT.709

Audio #1
ID : 2
Format : AC-3
Format/Info : Audio Coding 3
Commercial name : Dolby Digital
Codec ID : A_AC3
Duration : 1 h 24 min
Bit rate mode : Constant
Bit rate : 384 kb/s
Channel(s) : 6 channels
Channel layout : L R C LFE Ls Rs
Sampling rate : 48.0 kHz
Frame rate : 31.250 FPS (1536 SPF)
Compression mode : Lossy
Stream size : 232 MiB (5%)
Title : DUB (iTunes)
Language : Russian
Service kind : Complete Main
Default : Yes
Forced : Yes

Audio #2
ID : 3
Format : AC-3
Format/Info : Audio Coding 3
Commercial name : Dolby Digital
Codec ID : A_AC3
Duration : 1 h 24 min
Bit rate mode : Constant
Bit rate : 384 kb/s
Channel(s) : 6 channels
Channel layout : L R C LFE Ls Rs
Sampling rate : 48.0 kHz
Frame rate : 31.250 FPS (1536 SPF)
Compression mode : Lossy
Stream size : 232 MiB (5%)
Title : English
Language : English
Service kind : Complete Main
Default : No
Forced : No

Menu
00:00:00.000 : en:Глава 1
00:02:22.541 : en:Глава 2
00:08:44.291 : en:Глава 3
00:12:36.082 : en:Глава 4
00:17:22.707 : en:Глава 5
00:23:52.915 : en:Глава 6
00:30:58.040 : en:Глава 7
00:37:18.748 : en:Глава 8
00:44:52.289 : en:Глава 9
00:49:05.164 : en:Глава 10
00:57:52.622 : en:Глава 11
01:02:26.163 : en:Глава 12
01:10:07.454 : en:Глава 13
01:17:03.995 : en:Глава 14

piratbit.org



Скачать Лунные приключения через торрент https://i117.fastpic.org/big/2022/0420/60/a1281c13e288442c97b9af9da0164360.jpg Скачать, смотреть онлайн Лунные приключения бесплантно в хорошем качестве Описание: Пока взрослые только мечтают покорять космос, дети уже во всю странствуют среди звезд! Юная девочка и ее старший брат ... 10 10 9
Торрент: Зарегистрирован [2022-04-20 13:25] · скачан: 123 раз
Статус: √ проверено
Размер: 4.29 GB
Как cкачать? Как скачать Лунные приключения через торрент | UTorrent

% Раздел Тема Автор DL S | L
Иностранные мультфильмы [ 1.37 GB ] Лунные / Moonbound [2021 Мультфильм WEB-DLRip] bober100 Скачать
7 | 0

28-11-2019 20:33  

Отключить всю рекламу на сайте

    Дорогой пользователь! Огромная просьба, поблагодарите релизера, оцените раздачу и оставьте свои комментарий, если Вы скачали Лунные приключения через торрент бесплатно!
    Комментировать посты могут только пользователи прошедшие не сложную регистрацию
    Показать сообщения:    

    Лунные приключения через торрент
    Скачать бесплатно Лунные приключения
    Лунные приключения скачать торрент
    Лунные приключения смотреть онлайн
    Cкачать фильм Лунные приключения бесплатно
    Лунные приключения скачать торрент в хорошем качестве
    Лунные приключения смотреть онлайн бесплатно в хорошем качестве


    Вы не можете начинать темы
    Вы не можете отвечать на сообщения
    Вы не можете редактировать свои сообщения
    Вы не можете удалять свои сообщения
    Вы не можете голосовать в опросах
    Вы не можете прикреплять файлы к сообщениям
    Вы можете скачивать файлы