Всегда рабочее зеркало без VPN и Proxy просто перед .vidak.icu напиши любое слово или цифру, Пример http://s75d.vidak.icu

MVO

2 сезон

2 сезон

1

1 сезон

iTunes

2 сезон

13

1 сезон

Распродажа

pack

Рекомендуем

Пиратка

30

ВАЖНО

RePack

MK11

RePack

jed

RePack

fifa19

RePack

RDR2

RePack

NEED FOR SPEED™ PAYBACK

Кинопоиск HD

6 сезон

 Острые козырьки 6 сезон

Все сериалы

все сериалы на PB.wtf

RePack

FAR CRY 5

Anonymous, нам критически не хватает 5601 руб. на оплату серверов и переферии за Апрель, помоги нам пожалуйста, вся надежда только на тебя. В благодарность мы отключим тебе всю рекламу на сайте!

×
  
Magnet ссылка

Хочу замуж (Соня Карпунина) [2022, Комедия, мелодрама, WEB-DL 1080p] [OKKO] piratbit.org

Хочу замуж через торрент piratbit.org

Раздают: 14 [ 891 KB/s ]
Размер: 3.97 GB | Добавлен: 8 д. назад | Торрент скачан:87 раз
Смотреть онлайн Хочу замуж | Скачать    Ребята, помогите собрать деньги на оплату серверов!!!

21-04-2022 08:37 Хочу замуж Скачать торрент  

Хочу замуж
Год выпуска: 2022
Страна: Россия
Выпущено: Peak Media, START
Жанр: Комедия, мелодрама
Продолжительность: 01:45:40
Перевод: Не требуется | OKKO
Субтитры: отсутствуют

Режиссер: Соня Карпунина

rating

В ролях: Милош Бикович, Кристина Асмус, Сергей Гилев, Марина Александрова, Юлия Ауг, Олег Комаров, Анастасия Уколова, Агния Кузнецова, Надежда Сысоева, Анна Цуканова-Котт

Описание: У журналистки Любы всё идёт по плану: работа ведущей на телеканале, успешный и богатый жених Роберт. План катится к чертям, когда у Любы садится телефон, и она просит позвонить с телефона случайного прохожего. Им оказался Сергей, у которого тоже жизнь текла спокойно и размеренно до этого дня. Эта встреча запустит череду событий, которая полностью поменяет и жизнь Любы и Сергея, и их самих.

Качество: WEB-DL 1080p
Формат: MKV

Видео: MPEG-4 AVC, 4990 Кбит/с, 1920x800
Аудио: 48 kHz, AC3 Dolby Digital, 3/2 (L, C, R, l, r) + LFE ch, ~384 Kbps
скриншот  скриншот  скриншот  скриншот  

Общее
Уникальный идентификатор : 249002219120183778593541538656876071778 (0xBB54153FA290D67A8A9DCE7AF3218B62)
Полное имя : D:Hochu.Zamush.2022.WEB-DL.1080p.ExKinoRay.mkv
Формат : Matroska
Версия формата : Version 2
Размер файла : 3,97 Гбайт
Продолжительность : 1 ч. 45 м.
Общий поток : 5 374 Кбит/сек
Дата кодирования : UTC 2022-05-12 14:34:29
Программа кодирования : mkvmerge v5.8.0 ('No Sleep / Pillow') built on Sep 2 2012 15:37:04
Библиотека кодирования : libebml v1.2.3 + libmatroska v1.3.0

Видео
Идентификатор : 1
Формат : AVC
Формат/Информация : Advanced Video Codec
Профиль формата : High@L4
Настройки формата : CABAC / 3 Ref Frames
Параметр CABAC формата : Да
Параметр RefFrames формата : 3 кадра
Идентификатор кодека : V_MPEG4/ISO/AVC
Продолжительность : 1 ч. 45 м.
Битрейт : 5 000 Кбит/сек
Ширина : 1 920 пикселей
Высота : 800 пикселей
Соотношение сторон : 2,40:1
Режим частоты кадров : Постоянный
Частота кадров : 24,000 кадра/сек
Цветовое пространство : YUV
Субдискретизация насыщенности : 4:2:0
Битовая глубина : 8 бит
Тип развёртки : Прогрессивная
Бит/(Пиксели*Кадры) : 0.136
Размер потока : 3,60 Гбайт (91%)
Библиотека кодирования : x264 core 161 r3048 b86ae3c
Настройки программы : cabac=1 / ref=4 / deblock=1:1:1 / analyse=0x3:0x133 / me=umh / subme=9 / psy=1 / psy_rd=0.40:1.00 / mixed_ref=1 / me_range=24 / chroma_me=1 / trellis=0 / 8x8dct=1 / cqm=0 / deadzone=21,11 / fast_pskip=1 / chroma_qp_offset=-2 / threads=25 / lookahead_threads=2 / sliced_threads=0 / nr=0 / decimate=1 / interlaced=0 / bluray_compat=0 / constrained_intra=0 / bframes=8 / b_pyramid=1 / b_adapt=1 / b_bias=0 / direct=3 / weightb=1 / open_gop=0 / weightp=2 / keyint=72 / keyint_min=37 / scenecut=0 / intra_refresh=0 / rc_lookahead=30 / rc=2pass / mbtree=1 / bitrate=5000 / ratetol=1.0 / qcomp=0.80 / qpmin=1 / qpmax=69 / qpstep=4 / cplxblur=20.0 / qblur=0.5 / vbv_maxrate=7500 / vbv_bufsize=10000 / nal_hrd=none / filler=0 / ip_ratio=1.40 / aq=1:1.00
Язык : Russian
Default : Да
Forced : Нет
Цветовой диапазон : Limited
Коэффициенты матрицы : BT.709

Аудио
Идентификатор : 2
Формат : AC-3
Формат/Информация : Audio Coding 3
Коммерческое название : Dolby Digital
Идентификатор кодека : A_AC3
Продолжительность : 1 ч. 45 м.
Вид битрейта : Постоянный
Битрейт : 384 Кбит/сек
Каналы : 6 каналов
Channel layout : L R C LFE Ls Rs
Частота : 48,0 КГц
Частота кадров : 31,250 кадров/сек (1536 SPF)
Метод сжатия : С потерями
Размер потока : 290 Мбайт (7%)
Язык : Russian
Service kind : Complete Main
Default : Да
Forced : Нет

piratbit.org



Скачать Хочу замуж через торрент https://i117.fastpic.org/big/2022/0421/36/77b9c5a7cde36418618a376e0c300b36.jpg Скачать, смотреть онлайн Хочу замуж бесплантно в хорошем качестве Описание: У журналистки Любы всё идёт по плану: работа ведущей на телеканале, успешный и богатый жених Роберт. План катится к чертям, когда ... 8.2 10 16
Торрент: Зарегистрирован [2022-05-12 19:24] · скачан: 87 раз
Статус: √ проверено
Размер: 3.97 GB
Как cкачать? Как скачать Хочу замуж через торрент | UTorrent

% Раздел Тема Автор DL S | L
Наши новые фильмы 2020 - 2022 [ 1.6 GB ] Хочу замуж [2022 WEB-DLRip-AVC] [OKKO] bober100 Скачать
3 | 0
Наши новые фильмы 2020 - 2022 [ 1.46 GB ] Хочу замуж [2022 WEB-DLRip] [OKKO] bober100 Скачать
6 | 0
Наши фильмы (HD, WEB-DL 720p, 1080p) [ 1.98 GB ] Хочу замуж [2022 WEB-DL 720p] [OKKO] bober100 Скачать
2 | 0
T Наши новые фильмы 2020 - 2022 [ 1.51 GB ] Хочу замуж [2022 WEB-DLRip-AVC] RUS от ExKinoRay Lithuania Скачать
9 | 0
Наши фильмы (HD, WEB-DL 720p, 1080p) [ 2.43 GB ] Хочу замуж [2013 HDTVRip 720p] PROCTOLOG Скачать
1 | 0
Наши фильмы 2013 [ 1.37 GB ] Хочу замуж [2013 SatRip] Weliar Скачать
1 | 0

28-11-2019 20:33  

Отключить всю рекламу на сайте

    Дорогой пользователь! Огромная просьба, поблагодарите релизера, оцените раздачу и оставьте свои комментарий, если Вы скачали Хочу замуж через торрент бесплатно!
    Комментировать посты могут только пользователи прошедшие не сложную регистрацию
    Показать сообщения:    

    Хочу замуж через торрент
    Скачать бесплатно Хочу замуж
    Хочу замуж скачать торрент
    Хочу замуж смотреть онлайн
    Cкачать фильм Хочу замуж бесплатно
    Хочу замуж скачать торрент в хорошем качестве
    Хочу замуж смотреть онлайн бесплатно в хорошем качестве


    Вы не можете начинать темы
    Вы не можете отвечать на сообщения
    Вы не можете редактировать свои сообщения
    Вы не можете удалять свои сообщения
    Вы не можете голосовать в опросах
    Вы не можете прикреплять файлы к сообщениям
    Вы можете скачивать файлы