Всегда рабочее зеркало без VPN и Proxy просто перед .vidak.icu напиши любое слово или цифру, Пример http://o0jc.vidak.icu

MVO

2 сезон

2 сезон

1

1 сезон

iTunes

2 сезон

13

1 сезон

Deluxe

pack

Рекомендуем

Пиратка

30

ВАЖНО

RePack

MK11

RePack

jed

RePack

fifa19

RePack

RDR2

RePack

NEED FOR SPEED™ PAYBACK

Кинопоиск HD

6 сезон

 Острые козырьки 6 сезон

Все сериалы

все сериалы на PB.wtf

RePack

FAR CRY 5

Anonymous, нам критически не хватает 5601 руб. на оплату серверов и переферии за Апрель, помоги нам пожалуйста, вся надежда только на тебя. В благодарность мы отключим тебе всю рекламу на сайте!

×
  
Magnet ссылка

UFC Fight Night 205: Lemos vs. Andrade / Full Event / UFC Fight Pass [24.04.2022, MMA, WEB-DLRip/1080p/25fps, MKV/H.264, RU] piratbit.org

UFC Fight Night 205: Lemos vs. Andrade через торрент piratbit.org

Раздают: 1 [ 0 KB/s ]
Размер: 12.56 GB | Добавлен: 26 д. назад | Торрент скачан:10 раз
Смотреть онлайн UFC Fight Night 205: Lemos vs. Andrade | Скачать    Ребята, помогите собрать деньги на оплату серверов!!!

24-04-2022 06:35 UFC Fight Night 205: Lemos vs. Andrade Скачать торрент  

UFC Fight Night 205: Lemos vs. Andrade / Full Event
Год выпуска: 24.04.2022
Вид спорта: MMA
Продолжительность: 04:57:17
Язык комментариев: Русский
Комментаторы: Рома Мазуров, Давид Кучашвили, Алексей Володин, Роман Гришин
Выпущено: США, UFC Fight Pass

Описание: 24 апреля в Лас-Вегасе (Невада, США) на фирменной арене «UFC APEX» состоялся турнир UFC Fight Night 205. В главном бою вечера десятая в рейтинге женской минимальной весовой категории Аманда Лемос встретилась с бывшей чемпионкой UFC в этом весе Джессикой Андрадэ. Чуть раньше свой пятый поединок в UFC провел непобеждённый Александр Романов, который встретился с Чейсом Шерманом. Стоит отметить, что изначально соперником молдавского "Кинг Конга" должен был стать Таннер Босер, но канадец был вынужден отказаться от боя за несколько дней дней до выхода в октагон. В прелимах выступил Сергей Хандожко - россиянин провел первый бой с ноября 2019 года и столкнулся с крайне опасным Дуайтом Грантом.

Автор релиза:
Реклама: Отсутствует

Качество: WEB-DLRip 1080p
Формат: MKV

Видео: MPEG-4 AVC, 1920x1080, ~ 5900 Кбит/с, 25.000 FPS
Аудио: AC3, 2 ch, 192 Кбит/с, 48.0 kHz
Предварительный кард:

Полусредний вес: Дин Барри - Майк Джексон
Полутяжёлый вес: Марчин Прахнио - Филипе Линс
Полусредний вес: Престон Парсон - Эван Элдер
Легчайший вес: Аори Кюиленг - Камерон Элс
Полутяжёлый вес: Тайсон Педро - Исаак Виллануева
Полусредний вес: Дуайт Грант - Сергей Хандожко

Основной кард:

Промежуточный вес (до 86,18 кг): Джордан Райт - Марк-Андре Барио
Полулёгкий вес: Ландо Ванната - Чарльз Жорден
Женщины, наилегчайший вес: Мэйси Барбер - Монтана Де Ла Роса
Лёгкий вес: Клэй Гуида - Клаудио Пуэллесэ
Женщины, минимальный вес: Аманда Лемос - Джессика Андрадэ
Общее
Уникальный идентификатор : 89054480758702580163221032352835564211 (0x42FF44E4E27F6AC193D68C4B5FCDF2B3)
Полное имя : D:\UFC.(24.04.2022).1080p.RU.7turza\01.UFC.Predvaritelnyj.Kard.RU.7turza.mkv
Формат : Matroska
Версия формата : Version 4
Размер файла : 7,60 Гбайт
Продолжительность : 3 ч. 0 м.
Общий поток : 6048 Кбит/сек
Название фильма : 01.UFC.Predvaritelnyj.Kard.RU.7turza
Дата кодирования : UTC 2022-04-24 05:25:21
Программа кодирования : mkvmerge v66.0.0 ('Josie') 64-bit
Библиотека кодирования : libebml v1.4.2 + libmatroska v1.6.4
Attachments : poster.jpg

Видео
Идентификатор : 1
Формат : AVC
Формат/Информация : Advanced Video Codec
Профиль формата : High@L4.2
Настройки формата : CABAC / 1 Ref Frames
Параметр CABAC формата : Да
Параметр RefFrames формата : 1 кадр
Идентификатор кодека : V_MPEG4/ISO/AVC
Продолжительность : 3 ч. 0 м.
Битрейт : 5852 Кбит/сек
Номинальный битрейт : 7260 Кбит/сек
Ширина : 1920 пикселей
Высота : 1080 пикселей
Соотношение сторон : 16:9
Режим частоты кадров : Постоянный
Частота кадров : 25,000 кадров/сек
Цветовое пространство : YUV
Субдискретизация насыщенности : 4:2:0
Битовая глубина : 8 бит
Тип развёртки : Прогрессивная
Бит/(Пиксели*Кадры) : 0.113
Размер потока : 7,36 Гбайт (97%)
Библиотека кодирования : x264 core 160 r3000
Настройки программы : cabac=1 / ref=4 / deblock=1:0:0 / analyse=0x3:0x113 / me=hex / subme=4 / psy=1 / psy_rd=1.00:0.00 / mixed_ref=0 / me_range=16 / chroma_me=1 / trellis=1 / 8x8dct=1 / cqm=0 / deadzone=21,11 / fast_pskip=1 / chroma_qp_offset=-2 / threads=4 / lookahead_threads=1 / sliced_threads=0 / nr=0 / decimate=1 / interlaced=0 / bluray_compat=0 / constrained_intra=0 / bframes=3 / b_pyramid=2 / b_adapt=1 / b_bias=0 / direct=1 / weightb=1 / open_gop=0 / weightp=1 / keyint=50 / keyint_min=5 / scenecut=0 / intra_refresh=0 / rc_lookahead=20 / rc=abr / mbtree=1 / bitrate=7260 / ratetol=1.0 / qcomp=0.60 / qpmin=0 / qpmax=69 / qpstep=4 / vbv_maxrate=18599 / vbv_bufsize=11718 / nal_hrd=none / filler=0 / ip_ratio=1.40 / aq=1:1.00
Default : Да
Forced : Нет

Аудио
Идентификатор : 2
Формат : AC-3
Формат/Информация : Audio Coding 3
Коммерческое название : Dolby Digital
Идентификатор кодека : A_AC3
Продолжительность : 3 ч. 0 м.
Вид битрейта : Постоянный
Битрейт : 192 Кбит/сек
Каналы : 2 канала
ChannelLayout : L R
Частота : 48,0 КГц
Частота кадров : 31,250 кадров/сек (1536 SPF)
Метод сжатия : С потерями
Размер потока : 247 Мбайт (3%)
ServiceKind/String : Complete Main
Default : Да
Forced : Нет
piratbit.org



Скачать UFC Fight Night 205: Lemos vs. Andrade через торрент https://i117.fastpic.org/big/2022/0424/d1/817715207c289eae043b8d08041a1fd1.jpg?r=1 Скачать, смотреть онлайн UFC Fight Night 205: Lemos vs. Andrade бесплантно в хорошем качестве Описание: 24 апреля в Лас-Вегасе (Невада, США) на фирменной арене «UFC APEX» состоялся турнир UFC Fight Night 2 В главном бою вечера ... 7 10 3
Торрент: Зарегистрирован [2022-04-24 06:35] · скачан: 10 раз
Статус: √ проверено
Размер: 12.56 GB
Как cкачать? Как скачать UFC Fight Night 205: Lemos vs. Andrade через торрент | UTorrent

28-11-2019 20:33  

Отключить всю рекламу на сайте

    Дорогой пользователь! Огромная просьба, поблагодарите релизера, оцените раздачу и оставьте свои комментарий, если Вы скачали UFC Fight Night 205: Lemos vs. Andrade через торрент бесплатно!
    Комментировать посты могут только пользователи прошедшие не сложную регистрацию
    Показать сообщения:    

    UFC Fight Night 205: Lemos vs. Andrade через торрент
    Скачать бесплатно UFC Fight Night 205: Lemos vs. Andrade
    UFC Fight Night 205: Lemos vs. Andrade скачать торрент
    UFC Fight Night 205: Lemos vs. Andrade смотреть онлайн
    Cкачать фильм UFC Fight Night 205: Lemos vs. Andrade бесплатно
    UFC Fight Night 205: Lemos vs. Andrade скачать торрент в хорошем качестве
    UFC Fight Night 205: Lemos vs. Andrade смотреть онлайн бесплатно в хорошем качестве


    Вы не можете начинать темы
    Вы не можете отвечать на сообщения
    Вы не можете редактировать свои сообщения
    Вы не можете удалять свои сообщения
    Вы не можете голосовать в опросах
    Вы не можете прикреплять файлы к сообщениям
    Вы можете скачивать файлы