Всегда рабочее зеркало без VPN и Proxy просто перед .vidak.icu напиши любое слово или цифру, Пример http://y2xz.vidak.icu

MVO

Лицензия

1 сезон

1

1 сезон

iTunes

1 сезон

13

1 сезон

Deluxe

pack

Рекомендуем

Пиратка

30

ВАЖНО

RePack

MK11

RePack

jed

RePack

fifa19

RePack

RDR2

RePack

NEED FOR SPEED™ PAYBACK

Кинопоиск HD

6 сезон

 Острые козырьки 6 сезон

Все сериалы

все сериалы на PB.wtf

RePack

FAR CRY 5

Anonymous, нам критически не хватает 2100 руб. на оплату серверов и переферии за МАЙ, помоги нам пожалуйста, вся надежда только на тебя. В благодарность мы отключим тебе всю рекламу на сайте!

×
  
Magnet ссылка

Оффлайн / Сезон: 1 / Серии: 1-10 из 10 + Фильм о фильме (Кирилл Плетнёв) [2022, Триллер, детектив, драма, WEB-DLRip, (Версия 18+)] piratbit.org

Оффлайн через торрент piratbit.org

Раздают: 6 [ 3 MB/s ] Качают: 4 [ 0 KB/s ]
Размер: 9.32 GB | Добавлен: 2 д. 3 ч. назад | Торрент скачан:15 раз
Смотреть онлайн Оффлайн | Скачать    Ребята, помогите собрать деньги на оплату серверов!!!

27-04-2022 09:40 Оффлайн Скачать торрент  

Оффлайн
Год выпуска: 2022
Страна: Россия
Студия: BUBBLEGUM PRODUCTION по заказу Okko Studios
Жанр: Триллер, детектив, драма
Продолжительность: ~ 00:52:00
Перевод: Не требуется
Субтитры: отсутствуют
Версия 18+

Режиссер: Кирилл Плетнёв



В ролях: Никита Ефремов, Денис Шведов, Никита Кологривый, Полина Максимова, Альфия Закирова, Марина Ворожищева, Алёна Константинова, Тина Стойилкович, Егор Кенжаметов, Игорь Черневич, Риналь Мухаметов, Полина Пушкарук, Алексей Шевченков, Дмитрий Ульянов, Анна Каменкова, Никита Карпинский, Павел Чернышев, Даниил Белых, Александр Фисенко, Алексей Коряков, Полина Айнутдинова, Василий Михайлов, Николай Хмелёв, Михаил Водзуми, Сергей Покопцев, Егор Ковалёв, Александр Комиссаров, Максим Линников, Сергей Легостаев, Александр Макаршин, Александр Мякушко, Геннадий Семёнов, Валентин Самохин, Евгений Харланов, Матвей Черных, Алексей Юдников, Серафим Долбунов, Константин Умрихин, Алёна Ицкова, Карина Шишлянникова

Описание: BeHappy - секретное невидимое приложение, которое служит для покупки наркотиков через смартфон. Его пользователи сталкиваются с серьезным противником, который прячется под именем Анонимус. Он сообщает им, что сумел раскрыть данные всех, кто когда-либо пользовался этим приложением и теперь он дает им выбор - пойти в полицию и во всем признаться или сыграть в игру со смертью. Что будет, если в этой игре проиграть, становится ясно, когда пользователи BeHappy получают фото кладмена с перерезанным горлом.

Качество: WEB-DLRip
Формат: AVI

Видео: XviD, 720x304, ~ 1677 Кбит/с, 0.306 bit/pixel, 25 Кадр/с
Аудио 1: AC3, 48,0 КГц, 6 ch, 384 Кбит/с | С цензурой
Аудио 2: AC3, 48,0 КГц, 6 ch, 384 Кбит/с | Без цензуры (18+)
скриншот  скриншот  скриншот  скриншот  скриншот  скриншот  

Общее
Полное имя : D:\Offlain.S01.WEB-DLRip.25Kuzmich\Offlain.s01e02.WEB-DLRip.25Kuzmich.avi
Формат : AVI
Формат/Информация : Audio Video Interleave
Размер файла : 859 Мбайт
Продолжительность : 48 м. 50 с.
Общий поток : 2 460 Кбит/сек
Программа кодирования : VirtualDubMod 1.5.10.3 (build 2550/release)
Библиотека кодирования : VirtualDubMod build 2550/release

Видео
Идентификатор : 0
Формат : MPEG-4 Visual
Профиль формата : Advanced Simple@L5
Настройки формата : BVOP1
Параметр BVOP формата : 1
Параметр QPel формата : Нет
Параметр GMC формата : Без точки перехода
Параметр матрицы формата : Default (MPEG)
Идентификатор кодека : XVID
Идентификатор кодека/Подсказка : XviD
Продолжительность : 48 м. 50 с.
Битрейт : 1 677 Кбит/сек
Ширина : 720 пикселей
Высота : 304 пикселя
Соотношение сторон : 2,35:1
Частота кадров : 25,000 кадров/сек
Цветовое пространство : YUV
Субдискретизация насыщенности : 4:2:0
Битовая глубина : 8 бит
Тип развёртки : Прогрессивная
Метод сжатия : С потерями
Бит/(Пиксели*Кадры) : 0.306
Размер потока : 586 Мбайт (68%)
Библиотека кодирования : XviD 73

Аудио #1
Идентификатор : 1
Формат : AC-3
Формат/Информация : Audio Coding 3
Коммерческое название : Dolby Digital
Идентификатор кодека : 2000
Продолжительность : 48 м. 50 с.
Вид битрейта : Постоянный
Битрейт : 384 Кбит/сек
Каналы : 6 каналов
Channel layout : L R C LFE Ls Rs
Частота : 48,0 КГц
Частота кадров : 31,250 кадров/сек (1536 SPF)
Метод сжатия : С потерями
Размер потока : 134 Мбайт (16%)
Выравнивание : Разделение по промежуткам
Продолжительность промежутка : 40 мс. (1,00 видеокадр)
Время предзагрузки промежутка : 500 мс.
Service kind : Complete Main

Аудио #2
Идентификатор : 2
Формат : AC-3
Формат/Информация : Audio Coding 3
Коммерческое название : Dolby Digital
Идентификатор кодека : 2000
Продолжительность : 48 м. 50 с.
Вид битрейта : Постоянный
Битрейт : 384 Кбит/сек
Каналы : 6 каналов
Channel layout : L R C LFE Ls Rs
Частота : 48,0 КГц
Частота кадров : 31,250 кадров/сек (1536 SPF)
Метод сжатия : С потерями
Размер потока : 134 Мбайт (16%)
Выравнивание : Разделение по промежуткам
Продолжительность промежутка : 40 мс. (1,00 видеокадр)
Время предзагрузки промежутка : 500 мс.
Service kind : Complete Main

Внимание! Раздача ведётся путём добавления новых серий; при каждом добавлении создаётся новый торрент.
Чтобы начать докачку новой серии, пользователям необходимо сделать следующее:
1. Остановить скачивание;
2. Удалить старый торрент у себя из клиента (старые серии удалять не надо);
3. Скачать новый торрент и запустить его у себя в клиенте вместо старого, при этом указать клиенту путь в старую папку куда и должно происходить скачивание новых серий. Ваш клиент при этом должен произвести хеширование (проверку) старой папки и будет докачивать только те серии, которых у вас ещё нет. Старые серии при этом не удаляются, а продолжают раздаваться! Eсли вы уже удалили старые серии, то предотвратить повторную закачку старых серий можно, отжав галочку в соответствующих местах при запуске нового торрента.

piratbit.org



Скачать Оффлайн через торрент https://i117.fastpic.org/big/2022/0427/87/a27ad5d38ebcc0d679e43ada63e5a387.jpg Скачать, смотреть онлайн Оффлайн бесплантно в хорошем качестве Описание: BeHappy - секретное невидимое приложение, которое служит для покупки наркотиков через смартфон. Его пользователи сталкиваются с ... 7.8 10 17
Торрент: Зарегистрирован [2022-06-23 04:08] · скачан: 15 раз
Статус: √ проверено
Размер: 9.32 GB
Как cкачать? Как скачать Оффлайн через торрент | UTorrent

% Раздел Тема Автор DL S | L
Наши сериалы [ 14.73 GB ] Оффлайн / Сезон: 1 / Серии: 1-10 из 10 + Фильм о фильме [2022 WEB-DL 720p ] bober100 Скачать
4 | 3
Наши сериалы [ 21.38 GB ] Оффлайн / Сезон: 1 / Серии: 1-10 из 10 + Фильм о фильме [2022 WEB-DL 1080p ] bober100 Скачать
6 | 2
Наши сериалы [ 8.74 GB ] Оффлайн / Сезон: 1 / Серии: 1-10 из 10 + Фильм о фильме [2022 WEB-DLRip-AVC ] bober100 Скачать
11 | 7

28-11-2019 20:33  

Отключить всю рекламу на сайте

    Дорогой пользователь! Огромная просьба, поблагодарите релизера, оцените раздачу и оставьте свои комментарий, если Вы скачали Оффлайн через торрент бесплатно!
    Комментировать посты могут только пользователи прошедшие не сложную регистрацию
    Показать сообщения:    

    Оффлайн через торрент
    Скачать бесплатно Оффлайн
    Оффлайн скачать торрент
    Оффлайн смотреть онлайн
    Cкачать фильм Оффлайн бесплатно
    Оффлайн скачать торрент в хорошем качестве
    Оффлайн смотреть онлайн бесплатно в хорошем качестве


    Вы не можете начинать темы
    Вы не можете отвечать на сообщения
    Вы не можете редактировать свои сообщения
    Вы не можете удалять свои сообщения
    Вы не можете голосовать в опросах
    Вы не можете прикреплять файлы к сообщениям
    Вы можете скачивать файлы