Всегда рабочее зеркало без VPN и Proxy просто перед .vidak.icu напиши любое слово или цифру, Пример http://zk9w.vidak.icu

MVO

Лицензия

1 сезон

1

1 сезон

iTunes

1 сезон

13

1 сезон

Deluxe

pack

Рекомендуем

Пиратка

30

ВАЖНО

RePack

MK11

RePack

jed

RePack

fifa19

RePack

RDR2

RePack

NEED FOR SPEED™ PAYBACK

Кинопоиск HD

6 сезон

 Острые козырьки 6 сезон

Все сериалы

все сериалы на PB.wtf

RePack

FAR CRY 5

Anonymous, нам критически не хватает 2100 руб. на оплату серверов и переферии за МАЙ, помоги нам пожалуйста, вся надежда только на тебя. В благодарность мы отключим тебе всю рекламу на сайте!

×
  
Magnet ссылка

Оффлайн / Сезон: 1 / Серии: 1-10 из 10 + Фильм о фильме (Кирилл Плетнёв) [2022, Триллер, детектив, драма, WEB-DLRip-AVC, (Версия 18+)] piratbit.org

Оффлайн через торрент piratbit.org

Раздают: 11 [ 2 MB/s ] Качают: 6 [ 0 KB/s ]
Размер: 8.74 GB | Добавлен: 5 д. назад | Торрент скачан:38 раз
Смотреть онлайн Оффлайн | Скачать    Ребята, помогите собрать деньги на оплату серверов!!!

27-04-2022 15:05 Оффлайн Скачать торрент  

Оффлайн
Год выпуска: 2022
Страна: Россия
Студия: BUBBLEGUM PRODUCTION по заказу Okko Studios
Жанр: Триллер, детектив, драма
Продолжительность: ~ 00:52:00
Перевод: Не требуется
Субтитры: отсутствуют
Версия 18+

Режиссер: Кирилл Плетнёв



В ролях: Никита Ефремов, Денис Шведов, Никита Кологривый, Полина Максимова, Альфия Закирова, Марина Ворожищева, Алёна Константинова, Тина Стойилкович, Егор Кенжаметов, Игорь Черневич, Риналь Мухаметов, Полина Пушкарук, Алексей Шевченков, Дмитрий Ульянов, Анна Каменкова, Никита Карпинский, Павел Чернышев, Даниил Белых, Александр Фисенко, Алексей Коряков, Полина Айнутдинова, Василий Михайлов, Николай Хмелёв, Михаил Водзуми, Сергей Покопцев, Егор Ковалёв, Александр Комиссаров, Максим Линников, Сергей Легостаев, Александр Макаршин, Александр Мякушко, Геннадий Семёнов, Валентин Самохин, Евгений Харланов, Матвей Черных, Алексей Юдников, Серафим Долбунов, Константин Умрихин, Алёна Ицкова, Карина Шишлянникова

Описание: BeHappy - секретное невидимое приложение, которое служит для покупки наркотиков через смартфон. Его пользователи сталкиваются с серьезным противником, который прячется под именем Анонимус. Он сообщает им, что сумел раскрыть данные всех, кто когда-либо пользовался этим приложением и теперь он дает им выбор - пойти в полицию и во всем признаться или сыграть в игру со смертью. Что будет, если в этой игре проиграть, становится ясно, когда пользователи BeHappy получают фото кладмена с перерезанным горлом.

Качество: WEB-DLRip-AVC
Формат: MKV

Видео: MPEG-4 AVC, ~ 1600 Кбит/с, 1024x432, 25 кадр/с
Аудио 1: AC3, 48,0 КГц, 6 ch, 384 Кбит/с | С цензурой
Аудио 2: AC3, 48,0 КГц, 6 ch, 384 Кбит/с | Без цензуры (18+)
скриншот  скриншот  скриншот  скриншот  скриншот  скриншот  

General
Unique ID : 70171204322437006009090339523448711813 (0x34CA7B7C32291B1E5229753E239AAA85)
Complete name : F:\Оффлайн.(2022).WEB-DLRip.(AVC).Files-x\02.Оффлайн.(2022).WEB-DLRip.(AVC).by.Серый1779.Files-x.mkv
Format : Matroska
Format version : Version 4 / Version 2
File size : 828 MiB
Duration : 48 min 50 s
Overall bit rate : 2 371 kb/s
Movie name : Offlajn.S01.E02.2022.WEB-DLRip.1080p
Encoded date : UTC 2022-04-27 14:01:01
Writing application : mkvmerge v32.0.0 ('Astral Progressions') 64-bit
Writing library : libebml v1.3.7 + libmatroska v1.5.0
Attachments : poster.jpg

Video
ID : 1
Format : AVC
Format/Info : Advanced Video Codec
Format profile : High@L4.1
Format settings : CABAC / 9 Ref Frames
Format settings, CABAC : Yes
Format settings, RefFrames : 9 frames
Codec ID : V_MPEG4/ISO/AVC
Duration : 48 min 50 s
Bit rate : 1 600 kb/s
Width : 1 024 pixels
Height : 432 pixels
Display aspect ratio : 2.40:1
Frame rate mode : Constant
Frame rate : 25.000 FPS
Color space : YUV
Chroma subsampling : 4:2:0
Bit depth : 8 bits
Scan type : Progressive
Bits/(Pixel*Frame) : 0.145
Stream size : 559 MiB (67%)
Writing library : x264 core 146 r2538 121396c
Encoding settings : cabac=1 / ref=9 / deblock=1:-2:-1 / analyse=0x3:0x133 / me=umh / subme=9 / psy=1 / psy_rd=1.00:0.15 / mixed_ref=1 / me_range=32 / chroma_me=1 / trellis=2 / 8x8dct=1 / cqm=0 / deadzone=21,11 / fast_pskip=0 / chroma_qp_offset=-3 / threads=18 / lookahead_threads=3 / sliced_threads=0 / nr=0 / decimate=1 / interlaced=0 / bluray_compat=0 / constrained_intra=0 / bframes=9 / b_pyramid=2 / b_adapt=2 / b_bias=0 / direct=1 / weightb=1 / open_gop=0 / weightp=2 / keyint=250 / keyint_min=25 / scenecut=40 / intra_refresh=0 / rc=2pass / mbtree=0 / bitrate=1600 / ratetol=1.0 / qcomp=0.60 / qpmin=0 / qpmax=69 / qpstep=4 / cplxblur=20.0 / qblur=0.5 / ip_ratio=1.40 / pb_ratio=1.30 / aq=2:1.00
Default : Yes
Forced : No
Color range : Limited
Color primaries : BT.709
Transfer characteristics : BT.709
Matrix coefficients : BT.709

Audio #1
ID : 2
Format : AC-3
Format/Info : Audio Coding 3
Format settings, Endianness : Big
Codec ID : A_AC3
Duration : 48 min 50 s
Bit rate mode : Constant
Bit rate : 384 kb/s
Channel(s) : 6 channels
Channel positions : Front: L C R, Side: L R, LFE
Sampling rate : 48.0 kHz
Frame rate : 31.250 FPS (1536 SPF)
Bit depth : 16 bits
Compression mode : Lossy
Stream size : 134 MiB (16%)
Title : Censor
Language : Russian
Service kind : Complete Main
Default : Yes
Forced : No

Audio #2
ID : 3
Format : AC-3
Format/Info : Audio Coding 3
Format settings, Endianness : Big
Codec ID : A_AC3
Duration : 48 min 50 s
Bit rate mode : Constant
Bit rate : 384 kb/s
Channel(s) : 6 channels
Channel positions : Front: L C R, Side: L R, LFE
Sampling rate : 48.0 kHz
Frame rate : 31.250 FPS (1536 SPF)
Bit depth : 16 bits
Compression mode : Lossy
Stream size : 134 MiB (16%)
Title : 18+
Language : Russian
Service kind : Complete Main
Default : No
Forced : No

Внимание! Раздача ведётся путём добавления новых серий; при каждом добавлении создаётся новый торрент.
Чтобы начать докачку новой серии, пользователям необходимо сделать следующее:
1. Остановить скачивание;
2. Удалить старый торрент у себя из клиента (старые серии удалять не надо);
3. Скачать новый торрент и запустить его у себя в клиенте вместо старого, при этом указать клиенту путь в старую папку куда и должно происходить скачивание новых серий. Ваш клиент при этом должен произвести хеширование (проверку) старой папки и будет докачивать только те серии, которых у вас ещё нет. Старые серии при этом не удаляются, а продолжают раздаваться! Eсли вы уже удалили старые серии, то предотвратить повторную закачку старых серий можно, отжав галочку в соответствующих местах при запуске нового торрента.

piratbit.org



Скачать Оффлайн через торрент https://i117.fastpic.org/big/2022/0427/87/a27ad5d38ebcc0d679e43ada63e5a387.jpg Скачать, смотреть онлайн Оффлайн бесплантно в хорошем качестве Описание: BeHappy - секретное невидимое приложение, которое служит для покупки наркотиков через смартфон. Его пользователи сталкиваются с ... 7.7 10 16
Торрент: Зарегистрирован [2022-06-23 11:50] · скачан: 38 раз
Статус: √ проверено
Размер: 8.74 GB
Как cкачать? Как скачать Оффлайн через торрент | UTorrent

% Раздел Тема Автор DL S | L
Наши сериалы [ 14.73 GB ] Оффлайн / Сезон: 1 / Серии: 1-10 из 10 + Фильм о фильме [2022 WEB-DL 720p ] bober100 Скачать
5 | 5
Наши сериалы [ 21.38 GB ] Оффлайн / Сезон: 1 / Серии: 1-10 из 10 + Фильм о фильме [2022 WEB-DL 1080p ] bober100 Скачать
7 | 3
Наши сериалы [ 9.32 GB ] Оффлайн / Сезон: 1 / Серии: 1-10 из 10 + Фильм о фильме [2022 WEB-DLRip ] bober100 Скачать
6 | 2

28-11-2019 20:33  

Отключить всю рекламу на сайте

    Дорогой пользователь! Огромная просьба, поблагодарите релизера, оцените раздачу и оставьте свои комментарий, если Вы скачали Оффлайн через торрент бесплатно!
    Комментировать посты могут только пользователи прошедшие не сложную регистрацию
    Показать сообщения:    

    Оффлайн через торрент
    Скачать бесплатно Оффлайн
    Оффлайн скачать торрент
    Оффлайн смотреть онлайн
    Cкачать фильм Оффлайн бесплатно
    Оффлайн скачать торрент в хорошем качестве
    Оффлайн смотреть онлайн бесплатно в хорошем качестве


    Вы не можете начинать темы
    Вы не можете отвечать на сообщения
    Вы не можете редактировать свои сообщения
    Вы не можете удалять свои сообщения
    Вы не можете голосовать в опросах
    Вы не можете прикреплять файлы к сообщениям
    Вы можете скачивать файлы