Всегда рабочее зеркало без VPN и Proxy просто перед .vidak.icu напиши любое слово или цифру, Пример http://kxfr.vidak.icu

MVO

2 сезон

2 сезон

1

1 сезон

iTunes

2 сезон

13

1 сезон

Распродажа

pack

Рекомендуем

Пиратка

30

ВАЖНО

RePack

MK11

RePack

jed

RePack

fifa19

RePack

RDR2

RePack

NEED FOR SPEED™ PAYBACK

Кинопоиск HD

6 сезон

 Острые козырьки 6 сезон

Все сериалы

все сериалы на PB.wtf

RePack

FAR CRY 5

Anonymous, нам критически не хватает 5601 руб. на оплату серверов и переферии за Апрель, помоги нам пожалуйста, вся надежда только на тебя. В благодарность мы отключим тебе всю рекламу на сайте!

×
  
Magnet ссылка

Лакричная пицца / Licorice Pizza (Пол Томас Андерсон) [2021, Драма, мелодрама, комедия, BDRip 1080p] DVO [Pazl Voice] piratbit.org

Лакричная пицца через торрент piratbit.org

Раздают: 4 [ 2 MB/s ]
Размер: 16.05 GB | Добавлен: 15 д. назад | Торрент скачан:31 раз
Смотреть онлайн Лакричная пицца | Скачать    Ребята, помогите собрать деньги на оплату серверов!!!

05-05-2022 04:50 Лакричная пицца Скачать торрент  

Лакричная пицца
Licorice Pizza

Год выпуска: 2021
Страна: США, Канада
Выпущено: BRON Studios, Focus Features, Ghoulardi Film Company
Жанр: Драма, мелодрама, комедия
Продолжительность: 02:13:24
Перевод: Любительский (двухголосый) | Pazl Voice
Субтитры: Русские (forced, full (FOCS)), английские

Режиссер: Пол Томас Андерсон

rating

В ролях: Купер Хоффман, Бен Стиллер, Алана Хаим, Шон Пенн, Том Уэйтс, Брэдли Купер, Бенни Сэфди, Скайлер Гизондо, Мэри Элизабет Эллис, Джон Майкл Хиггинс, Бреннон Дойл, Кристин Эберсоул, Харриет Сэнсом Харрис, Райан Хеффингтон, Нэйт Манн

Описание: 1973 год. Гэри всего 15 лет, но он уже достаточно смел, развязен и обладает сильным деловым чутьем, чтобы выйти за рамки дозволенного. Беспечной Алане 25, и она не ждет многого от своего будущего. Вместе они отправятся покорять солнечную Калифорнию, где встретят мужа Барбары Стрейзанд и прогрессивного политика Джоэла Уэкса.

Качество: BDRip 1080p
Формат: MKV

Видео: MPEG-4 AVC, 16,1 Mбит/с, 1920x804
Аудио #1: AC3, 6 ch, 448 Кбит/с | RUS |
Аудио #2: AC3, 6 ch, 640 Кбит/с | ENG |
скриншот  скриншот  скриншот  скриншот  скриншот  

General
Unique ID : 337026725271605782197555837617900005036 (0xFD8CFC794D8BD7E83C7B9F96896EA6AC)
Complete name : E:TorrentsPizza.2021.BDRip.1080p_от New-Team.mkv
Format : Matroska
Format version : Version 4
File size : 16.0 GiB
Duration : 2 h 13 min
Overall bit rate : 17.2 Mb/s
Movie name : Pizza.2021.BDRip.1080p_от New-Team
Encoded date : UTC 2022-05-05 04:14:30
Writing application : mkvmerge v59.0.0 ('Shining Star') 64-bit
Writing library : libebml v1.4.2 + libmatroska v1.6.4

Video
ID : 1
Format : AVC
Format/Info : Advanced Video Codec
Format profile : High@L4.1
Format settings : CABAC / 5 Ref Frames
Format settings, CABAC : Yes
Format settings, Reference : 5 frames
Codec ID : V_MPEG4/ISO/AVC
Duration : 2 h 13 min
Bit rate : 16.1 Mb/s
Width : 1 920 pixels
Height : 804 pixels
Display aspect ratio : 2.40:1
Frame rate mode : Constant
Frame rate : 23.976 (24000/1001) FPS
Color space : YUV
Chroma subsampling : 4:2:0
Bit depth : 8 bits
Scan type : Progressive
Bits/(Pixel*Frame) : 0.436
Stream size : 15.0 GiB (94%)
Writing library : x264 core 157 r2938 2b00a84 TnP@MTeam Mod
Encoding settings : cabac=1 / ref=5 / deblock=1:-3:-3 / analyse=0x3:0x133 / me=umh / subme=10 / psy=1 / psy_rd=1.05:0.00 / mixed_ref=1 / me_range=32 / chroma_me=1 / trellis=2 / 8x8dct=1 / cqm=0 / deadzone=21,11 / fast_pskip=0 / chroma_qp_offset=-2 / threads=12 / lookahead_threads=2 / sliced_threads=0 / nr=0 / decimate=0 / interlaced=0 / bluray_compat=0 / constrained_intra=0 / bframes=8 / b_pyramid=2 / b_adapt=2 / b_bias=0 / direct=3 / weightb=1 / open_gop=0 / weightp=2 / keyint=250 / keyint_min=24 / scenecut=40 / intra_refresh=0 / rc_lookahead=250 / rc=crf / mbtree=0 / crf=16.8 / qcomp=0.60 / qpmin=0 / qpmax=69 / qpstep=4 / vbv_maxrate=62500 / vbv_bufsize=78125 / crf_max=0.0 / nal_hrd=none / filler=0 / ip_ratio=1.30 / pb_ratio=1.20 / aq=3:0.80
Language : English
Default : Yes
Forced : No
Color range : Limited
Color primaries : BT.709
Matrix coefficients : BT.709

Audio #1
ID : 2
Format : AC-3
Format/Info : Audio Coding 3
Commercial name : Dolby Digital
Codec ID : A_AC3
Duration : 2 h 13 min
Bit rate mode : Constant
Bit rate : 448 kb/s
Channel(s) : 6 channels
Channel layout : L R C LFE Ls Rs
Sampling rate : 48.0 kHz
Frame rate : 31.250 FPS (1536 SPF)
Compression mode : Lossy
Stream size : 428 MiB (3%)
Title : Pazl Voice - DVO
Language : Russian
Service kind : Complete Main
Default : Yes
Forced : No

Audio #2
ID : 3
Format : AC-3
Format/Info : Audio Coding 3
Commercial name : Dolby Digital
Codec ID : A_AC3
Duration : 2 h 13 min
Bit rate mode : Constant
Bit rate : 640 kb/s
Channel(s) : 6 channels
Channel layout : L R C LFE Ls Rs
Sampling rate : 48.0 kHz
Frame rate : 31.250 FPS (1536 SPF)
Compression mode : Lossy
Stream size : 611 MiB (4%)
Language : English
Service kind : Complete Main
Default : No
Forced : No

Text #1
ID : 4
Format : UTF-8
Codec ID : S_TEXT/UTF8
Codec ID/Info : UTF-8 Plain Text
Duration : 2 h 5 min
Bit rate : 2 b/s
Count of elements : 56
Stream size : 2.68 KiB (0%)
Title : FORCED
Language : Russian
Default : Yes
Forced : No

Text #2
ID : 5
Format : UTF-8
Codec ID : S_TEXT/UTF8
Codec ID/Info : UTF-8 Plain Text
Duration : 2 h 6 min
Bit rate : 110 b/s
Count of elements : 2160
Stream size : 102 KiB (0%)
Title : FOCS - Full
Language : Russian
Default : No
Forced : No

Text #3
ID : 6
Format : UTF-8
Codec ID : S_TEXT/UTF8
Codec ID/Info : UTF-8 Plain Text
Duration : 2 h 13 min
Bit rate : 69 b/s
Count of elements : 1997
Stream size : 68.3 KiB (0%)
Language : English
Default : No
Forced : No

Text #4
ID : 7
Format : UTF-8
Codec ID : S_TEXT/UTF8
Codec ID/Info : UTF-8 Plain Text
Duration : 2 h 13 min
Bit rate : 75 b/s
Count of elements : 2180
Stream size : 74.1 KiB (0%)
Title : SDH
Language : English
Default : No
Forced : No

Menu
00:00:00.000 : Chapter 01
00:06:34.894 : Chapter 02
00:14:45.259 : Chapter 03
00:21:21.906 : Chapter 04
00:29:28.266 : Chapter 05
00:38:54.207 : Chapter 06
00:43:49.001 : Chapter 07
00:48:32.701 : Chapter 08
00:55:18.690 : Chapter 09
01:01:19.718 : Chapter 10
01:16:12.860 : Chapter 11
01:35:21.049 : Chapter 12
01:40:56.092 : Chapter 13
01:49:54.546 : Chapter 14
02:00:45.071 : Chapter 15

piratbit.org



Скачать Лакричная пицца через торрент https://i7.imageban.ru/out/2022/05/04/1155345db2e07320e20d7d50edbaf0be.png Скачать, смотреть онлайн Лакричная пицца бесплантно в хорошем качестве Описание: 1973 год. Гэри всего 15 лет, но он уже достаточно смел, развязен и обладает сильным деловым чутьем, чтобы выйти за рамки ... 10 10 3
Info! Золотая раздача, скачанное не засчитывается.
Торрент: Зарегистрирован [2022-05-05 04:50] · скачан: 31 раз
Статус: T временная
Размер: 16.05 GB
Как cкачать? Как скачать Лакричная пицца через торрент | UTorrent

28-11-2019 20:33  

Отключить всю рекламу на сайте

    Дорогой пользователь! Огромная просьба, поблагодарите релизера, оцените раздачу и оставьте свои комментарий, если Вы скачали Лакричная пицца через торрент бесплатно!
    Комментировать посты могут только пользователи прошедшие не сложную регистрацию
    Показать сообщения:    

    Лакричная пицца через торрент
    Скачать бесплатно Лакричная пицца
    Лакричная пицца скачать торрент
    Лакричная пицца смотреть онлайн
    Cкачать фильм Лакричная пицца бесплатно
    Лакричная пицца скачать торрент в хорошем качестве
    Лакричная пицца смотреть онлайн бесплатно в хорошем качестве


    Вы не можете начинать темы
    Вы не можете отвечать на сообщения
    Вы не можете редактировать свои сообщения
    Вы не можете удалять свои сообщения
    Вы не можете голосовать в опросах
    Вы не можете прикреплять файлы к сообщениям
    Вы можете скачивать файлы