Всегда рабочее зеркало без VPN и Proxy просто перед .vidak.icu напиши любое слово или цифру, Пример http://0cgj.vidak.icu

MVO

2 сезон

2 сезон

1

1 сезон

iTunes

2 сезон

13

1 сезон

Распродажа

pack

Рекомендуем

Пиратка

30

ВАЖНО

RePack

MK11

RePack

jed

RePack

fifa19

RePack

RDR2

RePack

NEED FOR SPEED™ PAYBACK

Кинопоиск HD

6 сезон

 Острые козырьки 6 сезон

Все сериалы

все сериалы на PB.wtf

RePack

FAR CRY 5

Anonymous, нам критически не хватает 5601 руб. на оплату серверов и переферии за Апрель, помоги нам пожалуйста, вся надежда только на тебя. В благодарность мы отключим тебе всю рекламу на сайте!

×
  
Magnet ссылка

2050 / 2050 (Принстон Холт) [2018 г., Фантастика, драма, мелодрама, HDRip, Профессиональный многоголосый закадровый "OKKO"] piratbit.org

2050 через торрент piratbit.org

Раздают: 10 [ 0 KB/s ] Качают: 1 [ 0 KB/s ]
Размер: 710 MB | Добавлен: 10 д. назад | Торрент скачан:131 раз
Смотреть онлайн 2050 | Скачать    Ребята, помогите собрать деньги на оплату серверов!!!

10-05-2022 15:09 2050 Скачать торрент  

2050 / 2050
Год выпуска: 2018
Страна: США, Китай / Be Your Own Hollywood, Butterfly Chasers
Жанр: Фантастика, драма, мелодрама
Продолжительность: 01:42:12
Перевод: Профессиональный многоголосый закадровый (OKKO)

Режиссер: Принстон Холт

rating

В ролях: Дин Кэйн, Сторми Майя, Стефани Блум, Девин Фуллер, Дэвид Вон, Ирина Абрахам, Хоуп Блэксток, Джонатан Эрколино, Джейс Николь, Шенноне Холт

Описание: Майкл Грин несчастен в браке, несмотря на двоих прекрасных детей, его отношения с женой Брук давно зашли в тупик из массы неразрешимых противоречий. Несмотря на то, что он успешный дизайнер видеоигр, в одном их взгляды с супругой совпадают: набирающие популярность адроиды-партнеры ни за что не заменят живых людей. А вот младший брат Брук Дрю не разделяет их уверенности. Его возлюбленная ушла от него к такому вот услужливому и сексуальному андроиду, и потому Дрю и сам подумывает завести себе новомодную игрушку, которая не устраивает скандалов и просто создана для удовольствия. Майкл и Дрю открывают для себя отношения с новыми партнершами, созданными по их индивидуальным предпочтениям. Но пройдя через этот новый опыт, они приходят к противоположным выводам.

Качество: HDRip
Формат: AVI
Видео кодек: DivX
Аудио кодек: MP3
Видео: 640x272 (2.35:1), 25 fps, DivX Codec 4.x ~832 kbps avg, 0.19 bit/pixel
Аудио: 48 kHz, MPEG Layer 3, 2 ch, ~128.00 kbps avg

Общее
Полное имя : G:\ФИЛЬМЫ\2050.2018.HDRip.avi
Формат : AVI
Формат/Информация : Audio Video Interleave
Размер файла : 710 Мбайт
Продолжительность : 1 ч. 42 м.
Общий поток : 971 Кбит/сек
Программа кодирования : VirtualDubMod 1.5.10.3 | www.virtualdub-fr.org || (build 2550/release)
Библиотека кодирования : VirtualDubMod build 2550/release

Видео
Идентификатор : 0
Формат : MPEG-4 Visual
Профиль формата : Advanced Simple@L5
Настройки формата : BVOP2
Параметр BVOP формата : 2
Параметр QPel формата : Нет
Параметр GMC формата : Без точки перехода
Параметр матрицы формата : Default (MPEG)
Идентификатор кодека : DIVX
Идентификатор кодека/Информация : Project Mayo
Идентификатор кодека/Подсказка : DivX 4
Продолжительность : 1 ч. 42 м.
Битрейт : 833 Кбит/сек
Ширина : 640 пикселей
Высота : 272 пикселя
Соотношение сторон : 2,35:1
Частота кадров : 25,000 кадров/сек
Цветовое пространство : YUV
Субдискретизация насыщенности : 4:2:0
Битовая глубина : 8 бит
Тип развёртки : Прогрессивная
Метод сжатия : С потерями
Бит/(Пиксели*Кадры) : 0.191
Размер потока : 609 Мбайт (86%)
Библиотека кодирования : XviD 1.2.1 (UTC 2008-12-04)

Аудио
Идентификатор : 1
Формат : MPEG Audio
Версия формата : Version 1
Профиль формата : Layer 3
Настройки формата : Joint stereo / MS Stereo
Идентификатор кодека : 55
Идентификатор кодека/Подсказка : MP3
Продолжительность : 1 ч. 42 м.
Вид битрейта : Постоянный
Битрейт : 128 Кбит/сек
Каналы : 2 канала
Частота : 48,0 КГц
Частота кадров : 41,667 кадра/сек (1152 SPF)
Метод сжатия : С потерями
Размер потока : 93,6 Мбайт (13%)
Выравнивание : Соединение по промежуткам
Продолжительность промежутка : 40 мс. (1,00 видеокадр)
Время предзагрузки промежутка : 504 мс.
Библиотека кодирования : LAME3.99r
Настройки программы : -m j -V 4 -q 2 -lowpass 17 -b 128

ReportBy : MediaInfoLib - v22.03
CreatedOn : UTC 2022-05-10 14:42:32

piratbit.org



Скачать 2050 через торрент https://i117.fastpic.org/big/2022/0510/59/0f7913524fd8430a362bc7c85bad0459.jpg Скачать, смотреть онлайн 2050 бесплантно в хорошем качестве Описание: Майкл Грин несчастен в браке, несмотря на двоих прекрасных детей, его отношения с женой Брук давно зашли в тупик из массы ... 5.5 10 2
Торрент: Зарегистрирован [2022-05-10 15:09] · скачан: 131 раз
Статус: √ проверено
Размер: 710 MB
Как cкачать? Как скачать 2050 через торрент | UTorrent

% Раздел Тема Автор DL S | L
Обои для рабочего стола [ 2.76 GB ] Обои для рабочего стола - Разное [1680x1050 - 7680x4320] [2050 шт.] JPG bober100 Скачать
1 | 0
Фильмы 2017 [DVDrip, WEB-DLRip, HDrip] (DUB, MVO) [ 1.45 GB ] Смертельные гонки 2050 / Death Race 2050 [2017 HDRip] killermax2013 Скачать
1 | 0
Фильмы с авторской озвучкой [ 1.45 GB ] Смертельная Гонка 2050 / Death Race 2050 [2017 BDRip Авторский одноголосый "М. Яроцкий"] от ExKinoRay Enigma2010 Скачать
1 | 0
Фантастика, фентези, мистика, ужасы [ 1 MB ] Олег Дивов и др. - Русская Арктика 2050 [сборник] FB2 sahambar Скачать
1 | 0
Обои для рабочего стола [ 1.32 GB ] Обои для рабочего стола - 2000 самых горячих обоев 1920х1080 [1920х1080] [2050 шт] JPG gunk Скачать
1 | 0
Фильмы 2001-2005 [ 700 MB ] Кровавый кулак - год 2050 / Bloodfist 2050 [2005 DVDRip] slav4i4ok Скачать
1 | 0
HD ролики [ 1.08 GB ] [MyDadsHotGirlfriend / NaughtyAmerica] Amber Ashlee [2011 Big Tits Blonde Blow Job Fake Tits Foot Fetish High Heels Piercings 720p] Romeo0502 Скачать
1 | 0

28-11-2019 20:33  

Отключить всю рекламу на сайте

    Дорогой пользователь! Огромная просьба, поблагодарите релизера, оцените раздачу и оставьте свои комментарий, если Вы скачали 2050 через торрент бесплатно!
    Комментировать посты могут только пользователи прошедшие не сложную регистрацию
    Показать сообщения:    

    2050 через торрент
    Скачать бесплатно 2050
    2050 скачать торрент
    2050 смотреть онлайн
    Cкачать фильм 2050 бесплатно
    2050 скачать торрент в хорошем качестве
    2050 смотреть онлайн бесплатно в хорошем качестве


    Вы не можете начинать темы
    Вы не можете отвечать на сообщения
    Вы не можете редактировать свои сообщения
    Вы не можете удалять свои сообщения
    Вы не можете голосовать в опросах
    Вы не можете прикреплять файлы к сообщениям
    Вы можете скачивать файлы