Всегда рабочее зеркало без VPN и Proxy просто перед .vidak.icu напиши любое слово или цифру, Пример http://lbd9.vidak.icu

MVO

2 сезон

2 сезон

1

1 сезон

iTunes

2 сезон

13

1 сезон

Deluxe

pack

Рекомендуем

Пиратка

30

ВАЖНО

RePack

MK11

RePack

jed

RePack

fifa19

RePack

RDR2

RePack

NEED FOR SPEED™ PAYBACK

Кинопоиск HD

6 сезон

 Острые козырьки 6 сезон

Все сериалы

все сериалы на PB.wtf

RePack

FAR CRY 5

Anonymous, нам критически не хватает 5601 руб. на оплату серверов и переферии за Апрель, помоги нам пожалуйста, вся надежда только на тебя. В благодарность мы отключим тебе всю рекламу на сайте!

×
  
Magnet ссылка

Затерянный город / The Lost City (Аарон Ни, Адам Ни) [2022, Комедия, приключения, мелодрама, боевик, WEB-DLRip-AVC] MVO [Jaskier] piratbit.org

Затерянный город через торрент piratbit.org

Раздают: 32 [ 932 KB/s ]
Размер: 2.03 GB | Добавлен: 8 д. назад | Торрент скачан:174 раза
Смотреть онлайн Затерянный город | Скачать    Ребята, помогите собрать деньги на оплату серверов!!!

10-05-2022 16:53 Затерянный город Скачать торрент  

Затерянный город
The Lost City

Год выпуска: 2022
Страна: США
Студия: 3dot productions, Exhibit A, Fortis Films, Paramount Pictures
Жанр: Комедия, приключения, мелодрама, боевик
Продолжительность: 01:51:49
Перевод: Профессиональный (многоголосый) | Jaskier
Субтитры: Русские (Full), английские

Режиссер: Аарон Ни, Адам Ни

rating

В ролях: Сандра Буллок, Ченнинг Татум, Дэниэл Рэдклифф, Да’Вин Джой Рэндольф, Оскар Нуньес, Патти Харрисон, Брэд Питт, Боуэн Янг, Стивен Лэнг, Джоан Прингл

Описание: Лоретта Сейдж пишет популярные любовно-приключенческие романы. События в них непременно разворачиваются в экзотических местах, а главный герой — красавчик и мечта героинь Дэш, которого в жизни воплощает модель Алан. Во время промотура нового бестселлера Лоретту похищает эксцентричный миллиардер, уверенный, что она сможет привести его к сокровищам древнего затерянного города из ее последней книги. Алан решает доказать, что может быть героем в реальной жизни, а не только на страницах книг, и отправляется Лоретте на выручку.

Качество: WEB-DLRip-AVC
Формат: MKV

Видео: MPEG-4 AVC, 1024x428 at 23.976 fps, x264@L4.1, ~1769 kbps
Аудио: 48 kHz, AC3 Dolby Digital, 3/2 (L, C, R, l, r) + LFE ch, ~448 Kbps
Аудио: 48 kHz, AC3 Dolby Digital, 3/2 (L, C, R, l, r) + LFE ch, ~384 Kbps
скриншот  скриншот  скриншот  скриншот  скриншот  

General
Unique ID : 154558666012678775210301967494474347093 (0x7446EA92E36272E03CB192442643B255)
Complete name : K:The.Lost.City.2022.MVO.WEB-DLRip.x264.mkv
Format : Matroska
Format version : Version 4
File size : 2.03 GiB
Duration : 1 h 51 min
Overall bit rate : 2 604 kb/s
Encoded date : UTC 2022-05-12 11:23:25
Writing application : mkvmerge v63.0.0 ('Everything') 64-bit
Writing library : libebml v1.4.2 + libmatroska v1.6.4
Cover : Yes
Attachments : cover.jpg / cover 2.jpg

Video
ID : 1
Format : AVC
Format/Info : Advanced Video Codec
Format profile : High@L4.1
Format settings : CABAC / 12 Ref Frames
Format settings, CABAC : Yes
Format settings, Reference : 12 frames
Codec ID : V_MPEG4/ISO/AVC
Duration : 1 h 51 min
Bit rate : 1 769 kb/s
Width : 1 024 pixels
Height : 428 pixels
Display aspect ratio : 2.40:1
Frame rate mode : Constant
Frame rate : 23.976 (24000/1001) FPS
Color space : YUV
Chroma subsampling : 4:2:0
Bit depth : 8 bits
Scan type : Progressive
Bits/(Pixel*Frame) : 0.168
Stream size : 1.38 GiB (68%)
Title : -=DoMiNo=-
Writing library : x264 core 164 r3094 bfc87b7
Encoding settings : cabac=1 / ref=12 / deblock=1:-2:-2 / analyse=0x3:0x133 / me=umh / subme=10 / psy=1 / psy_rd=1.07:0.20 / mixed_ref=1 / me_range=32 / chroma_me=1 / trellis=2 / 8x8dct=1 / cqm=0 / deadzone=21,11 / fast_pskip=0 / chroma_qp_offset=-3 / threads=17 / lookahead_threads=3 / sliced_threads=0 / nr=0 / decimate=0 / interlaced=0 / bluray_compat=0 / constrained_intra=0 / bframes=10 / b_pyramid=2 / b_adapt=2 / b_bias=0 / direct=3 / weightb=1 / open_gop=0 / weightp=2 / keyint=250 / keyint_min=23 / scenecut=40 / intra_refresh=0 / rc_lookahead=60 / rc=crf / mbtree=0 / crf=18.5 / qcomp=0.65 / qpmin=0 / qpmax=69 / qpstep=4 / vbv_maxrate=50000 / vbv_bufsize=62500 / crf_max=0.0 / nal_hrd=none / filler=0 / ip_ratio=1.35 / pb_ratio=1.25 / aq=2:1.00
Language : English
Default : Yes
Forced : No
Color range : Limited
Color primaries : BT.709
Transfer characteristics : BT.709
Matrix coefficients : BT.709

Audio #1
ID : 2
Format : AC-3
Format/Info : Audio Coding 3
Commercial name : Dolby Digital
Codec ID : A_AC3
Duration : 1 h 51 min
Bit rate mode : Constant
Bit rate : 448 kb/s
Channel(s) : 6 channels
Channel layout : L R C LFE Ls Rs
Sampling rate : 48.0 kHz
Frame rate : 31.250 FPS (1536 SPF)
Compression mode : Lossy
Stream size : 358 MiB (17%)
Title : MVO_Jaskier
Language : Russian
Service kind : Complete Main
Default : Yes
Forced : No

Audio #2
ID : 3
Format : AC-3
Format/Info : Audio Coding 3
Commercial name : Dolby Digital
Codec ID : A_AC3
Duration : 1 h 51 min
Bit rate mode : Constant
Bit rate : 384 kb/s
Channel(s) : 6 channels
Channel layout : L R C LFE Ls Rs
Sampling rate : 48.0 kHz
Frame rate : 31.250 FPS (1536 SPF)
Compression mode : Lossy
Stream size : 307 MiB (15%)
Language : English
Service kind : Complete Main
Default : No
Forced : No

Text #1
ID : 4
Format : UTF-8
Codec ID : S_TEXT/UTF8
Codec ID/Info : UTF-8 Plain Text
Duration : 1 h 45 min
Bit rate : 142 b/s
Count of elements : 1723
Stream size : 110 KiB (0%)
Title : Full
Language : Russian
Default : No
Forced : No

Text #2
ID : 5
Format : UTF-8
Codec ID : S_TEXT/UTF8
Codec ID/Info : UTF-8 Plain Text
Duration : 1 h 45 min
Bit rate : 78 b/s
Count of elements : 1720
Stream size : 60.2 KiB (0%)
Title : Full
Language : English
Default : No
Forced : No

Text #3
ID : 6
Format : UTF-8
Codec ID : S_TEXT/UTF8
Codec ID/Info : UTF-8 Plain Text
Duration : 1 h 45 min
Bit rate : 87 b/s
Count of elements : 1908
Stream size : 67.7 KiB (0%)
Title : SDH
Language : English
Default : No
Forced : No

Menu
00:00:00.000 : en:Chapter 1
00:11:26.000 : en:Chapter 2
00:19:31.000 : en:Chapter 3
00:26:55.000 : en:Chapter 4
00:33:43.000 : en:Chapter 5
00:41:29.000 : en:Chapter 6
00:50:29.000 : en:Chapter 7
01:02:19.000 : en:Chapter 8
01:13:31.000 : en:Chapter 9
01:23:19.000 : en:Chapter 10
01:34:35.000 : en:Chapter 11
01:44:52.000 : en:Chapter 12

piratbit.org



Скачать Затерянный город через торрент https://i.postimg.cc/8CP58Hm2/cover.jpg Скачать, смотреть онлайн Затерянный город бесплантно в хорошем качестве Описание: Лоретта Сейдж пишет популярные любовно-приключенческие романы. События в них непременно разворачиваются в экзотических местах, а ... 9.6 10 19
Торрент: Зарегистрирован [2022-05-12 14:01] · скачан: 174 раз
Статус: √ проверено
Размер: 2.03 GB
Как cкачать? Как скачать Затерянный город через торрент | UTorrent

% Раздел Тема Автор DL S | L
* Фильмы (мультфильмы) cо спонсором показа (Новинки AVI/MKV) [ 1.37 GB ] Затерянный город / The Lost City [2022 WEB-DLRip Чистый звук] jump88 Скачать
54 | 7
Фильмы 2022 [DVDrip, WEB-DLRip, HDrip] (DUB, MVO) [ 2.24 GB ] Затерянный город / The Lost City [2022 WEB-DLRip-AVC] MVO [Jaskier] от ExKinoRay Lithuania Скачать
72 | 4
Фильмы (HD 720p, 1080p) (48-60 fps) [ 3.6 GB ] Затерянный город / The Lost City [2022 WEB-DLRip 720p / 60 FPS Любительский ] от R.G. HD-Films slaventi-69 Скачать
25 | 2
Фильмы (WEB-DL 720p, 1080p) [ 5.83 GB ] Затерянный город / The Lost City [2022 WEB-DL 1080p] MVO [Jaskier] bober100 Скачать
72 | 6
Фильмы 2019-2020 [DVDrip, WEB-DLRip, HDrip] (DUB, MVO) [ 746 MB ] Дора и Затерянный город / Dora and the Lost City of Gold [2019 HDRip] DUB [] bober100 Скачать
1 | 0
Фильмы (Blu-ray, BD-Remux, HDDVD) [ 38.94 GB ] Дора и Затерянный город / Dora and the Lost City of Gold [2019 Blu-ray EUR 1080p] DUB [] bober100 Скачать
1 | 0
Фильмы 2019-2020 [DVDrip, WEB-DLRip, HDrip] (DUB, MVO) [ 1.46 GB ] Дора и Затерянный город / Dora and the Lost City of Gold [2019 BDRip] - [] Twi7ter Скачать
7 | 1


Последний раз редактировалось: bober100 (2022-05-12 14:02), всего редактировалось 3 раз(а)

28-11-2019 20:33  

Отключить всю рекламу на сайте

11-05-2022 12:07 Затерянный город Скачать торрент  

походу Роман с камнем ремейкнулиpiratbit.org



    Дорогой пользователь! Огромная просьба, поблагодарите релизера, оцените раздачу и оставьте свои комментарий, если Вы скачали Затерянный город через торрент бесплатно!
    Комментировать посты могут только пользователи прошедшие не сложную регистрацию
    Показать сообщения:    

    Затерянный город через торрент
    Скачать бесплатно Затерянный город
    Затерянный город скачать торрент
    Затерянный город смотреть онлайн
    Cкачать фильм Затерянный город бесплатно
    Затерянный город скачать торрент в хорошем качестве
    Затерянный город смотреть онлайн бесплатно в хорошем качестве


    Вы можете начинать темы
    Вы можете отвечать на сообщения
    Вы не можете редактировать свои сообщения
    Вы не можете удалять свои сообщения
    Вы не можете голосовать в опросах
    Вы не можете прикреплять файлы к сообщениям
    Вы можете скачивать файлы