Всегда рабочее зеркало без VPN и Proxy просто перед .vidak.icu напиши любое слово или цифру, Пример http://6jlr.vidak.icu

MVO

2 сезон

2 сезон

1

1 сезон

iTunes

2 сезон

13

1 сезон

Распродажа

pack

Рекомендуем

Пиратка

30

ВАЖНО

RePack

MK11

RePack

jed

RePack

fifa19

RePack

RDR2

RePack

NEED FOR SPEED™ PAYBACK

Кинопоиск HD

6 сезон

 Острые козырьки 6 сезон

Все сериалы

все сериалы на PB.wtf

RePack

FAR CRY 5

Anonymous, нам критически не хватает 5601 руб. на оплату серверов и переферии за Апрель, помоги нам пожалуйста, вся надежда только на тебя. В благодарность мы отключим тебе всю рекламу на сайте!

×
  
Magnet ссылка

Фантастические твари: Тайны Дамблдора / Fantastic Beasts: The Secrets of Dumbledore (Дэвид Йейтс) [2022, Фэнтези, приключения, семейный, WEBRip 1080p] 2xMVO [HDRezka Studio, NewComers] piratbit.org

Фантастические твари: Тайны Дамблдора через торрент piratbit.org

Раздают: 71 [ 11 MB/s ] Качают: 5 [ 0 KB/s ]
Размер: 7.8 GB | Добавлен: 4 д. назад | Торрент скачан:516 раз
Смотреть онлайн Фантастические твари: Тайны Дамблдора | Скачать    Ребята, помогите собрать деньги на оплату серверов!!!

11-05-2022 06:54 Фантастические твари: Тайны Дамблдора Скачать торрент  

Фантастические твари: Тайны Дамблдора
Fantastic Beasts: The Secrets of Dumbledore

Год выпуска: 2022
Страна: Великобритания, США
Выпущено: Heyday Films, Warner Bros.
Жанр: Фэнтези, приключения, семейный
Продолжительность: 02:22:34
Перевод:
Профессиональный (многоголосый) | HDRezka Studio
Профессиональный (многоголосый) | NewComers
Субтитры: Русские (Forced) - HDRezka Studio, украинские (Forced) - HDRezka Studio, корейские (хардсаб)

Режиссер: Дэвид Йейтс

rating

В ролях: Эдди Редмэйн, Джуд Лоу, Эзра Миллер, Дэн Фоглер, Элисон Судол, Каллум Тернер, Джессика Уильямс, Кэтрин Уотерстон, Мадс Миккельсен, Оливер Мазуччи

Описание: Профессор Альбус Дамблдор узнает, что могущественный темный волшебник Геллерт Грин-де-Вальд планирует захватить Влacть над миром. Понимая, что не сможет остановить его в одиночку, Дамблдор просит магозоолога Ньюта Саламандера возглавить команду из выдающихся волшебников и одного отважного магла-пекаря. Им предстоят невероятно опасные приключения, встреча со старыми и укрощение новых магических существ и борьба со сторонниками Грин-де-Вальда, которых становится все больше. Но какая роль в этой миссии уготована самому Дамблдору?

Качество: WEBRip 1080p
Формат: MKV

Видео: MPEG-4 AVC, ~ 6783 Kбит/с, 1920x800
Аудио 1: Русский, AC-3, 48 kHz, 2 ch, 192 kbps - HDRezka Studio
Аудио 2: Русский, AAC, 48 kHz, 2 ch, 196 kbps - NewComers
Аудио 3: Українська, AC-3, 48 kHz, 6 ch, 384 kbps - HDRezka Studio
Аудио 4: English, AAC, 48 kHz, 2 ch, 320 kbps - Original
скриншот  скриншот  скриншот  скриншот  скриншот  скриншот  

General
Unique ID : 87477070810295710523078085579674869585 (0x41CF78943F74FB99307942E446A5DF51)
Complete name : C:\Users\Wild_Cat\Desktop\Fantastic Beasts- The Secrets of Dumbledore (2022) Full HD. By Wild_Cat.mkv
Format : Matroska
Format version : Version 4
File size : 7.80 GiB
Duration : 2 h 22 min
Overall bit rate : 7 838 kb/s
Movie name : Fantastic Beasts: The Secrets of Dumbledore (2022) Full HD. By Wild_Cat
Encoded date : UTC 2022-05-14 05:57:34
Writing application : mkvmerge v67.0.0 ('Under Stars') 64-bit
Writing library : libebml v1.4.2 + libmatroska v1.6.4
Cover : Yes
Attachments : small_cover_land.jpg / cover.jpg / cover_land.jpg / small_cover.jpg

Video
ID : 1
Format : AVC
Format/Info : Advanced Video Codec
Format profile : Main@L4
Format settings : CABAC / 1 Ref Frames
Format settings, CABAC : Yes
Format settings, Reference : 1 frame
Format settings, GOP : M=1, N=25
Codec ID : V_MPEG4/ISO/AVC
Duration : 2 h 22 min
Bit rate mode : Constant
Bit rate : 6 783 kb/s
Width : 1 920 pixels
Height : 800 pixels
Display aspect ratio : 2.40:1
Frame rate mode : Constant
Frame rate : 23.976 (24000/1001) FPS
Color space : YUV
Chroma subsampling : 4:2:0
Bit depth : 8 bits
Scan type : Progressive
Bits/(Pixel*Frame) : 0.184
Stream size : 6.71 GiB (86%)
Title : by Wild_Cat
Language : Multiple languages
Default : Yes
Forced : No

Audio #1
ID : 2
Format : AC-3
Format/Info : Audio Coding 3
Commercial name : Dolby Digital
Codec ID : A_AC3
Duration : 2 h 22 min
Bit rate mode : Constant
Bit rate : 192 kb/s
Channel(s) : 2 channels
Channel layout : L R
Sampling rate : 48.0 kHz
Frame rate : 31.250 FPS (1536 SPF)
Compression mode : Lossy
Stream size : 196 MiB (2%)
Title : MVO - HDRezka Studio (Rus)
Language : Russian
Service kind : Complete Main
Default : Yes
Forced : No

Audio #2
ID : 3
Format : AAC LC
Format/Info : Advanced Audio Codec Low Complexity
Codec ID : A_AAC-2
Duration : 2 h 22 min
Bit rate : 196 kb/s
Channel(s) : 2 channels
Channel layout : L R
Sampling rate : 48.0 kHz
Frame rate : 46.875 FPS (1024 SPF)
Compression mode : Lossy
Stream size : 200 MiB (2%)
Title : MVO - NewComers
Language : Russian
Default : No
Forced : No

Audio #3
ID : 4
Format : AC-3
Format/Info : Audio Coding 3
Commercial name : Dolby Digital
Codec ID : A_AC3
Duration : 2 h 22 min
Bit rate mode : Constant
Bit rate : 384 kb/s
Channel(s) : 6 channels
Channel layout : L R C LFE Ls Rs
Sampling rate : 48.0 kHz
Frame rate : 31.250 FPS (1536 SPF)
Compression mode : Lossy
Stream size : 392 MiB (5%)
Title : MVO - HDRezka Studio (Ukr)
Language : Ukrainian
Service kind : Complete Main
Default : No
Forced : No

Audio #4
ID : 5
Format : AAC LC
Format/Info : Advanced Audio Codec Low Complexity
Codec ID : A_AAC-2
Duration : 2 h 22 min
Bit rate : 320 kb/s
Channel(s) : 2 channels
Channel layout : L R
Sampling rate : 48.0 kHz
Frame rate : 46.875 FPS (1024 SPF)
Compression mode : Lossy
Stream size : 326 MiB (4%)
Title : Original
Language : English
Default : No
Forced : No

Text #1
ID : 6
Format : UTF-8
Codec ID : S_TEXT/UTF8
Codec ID/Info : UTF-8 Plain Text
Duration : 1 h 10 min
Bit rate : 0 b/s
Count of elements : 13
Stream size : 421 Bytes (0%)
Title : Русский (Forced) - HDRezka Studio
Language : Russian
Default : Yes
Forced : No

Text #2
ID : 7
Format : UTF-8
Codec ID : S_TEXT/UTF8
Codec ID/Info : UTF-8 Plain Text
Duration : 1 h 10 min
Bit rate : 1 b/s
Count of elements : 12
Stream size : 541 Bytes (0%)
Title : Українська (Forced) - HDRezka Studio
Language : Ukrainian
Default : No
Forced : No

piratbit.org



Скачать Фантастические твари: Тайны Дамблдора через торрент http://i7.imageban.ru/out/2022/04/10/5b4b8051d925619bd153a72ed79056d9.jpg Скачать, смотреть онлайн Фантастические твари: Тайны Дамблдора бесплантно в хорошем качестве Описание: Профессор Альбус Дамблдор узнает, что могущественный темный волшебник Геллерт Грин-де-Вальд планирует захватить Влacть над миром. ... 9.7 10 55
Торрент: Зарегистрирован [2022-05-14 06:27] · скачан: 516 раз
Статус: T временная
Размер: 7.8 GB
Как cкачать? Как скачать Фантастические твари: Тайны Дамблдора через торрент | UTorrent

% Раздел Тема Автор DL S | L
T Фильмы (WEB-DL 720p, 1080p) [ 2.66 GB ] Фантастические твари: Тайны Дамблдора / Fantastic Beasts: The Secrets of Dumbledore [2022 WEBRip 1080p] [MVO] + [Ukr MVO] killermax2013 Скачать
48 | 4
T Фильмы (мультфильмы) cо спонсором показа (Новинки AVI/MKV) [ 2.72 GB ] Фантастические твари: Тайны Дамблдора / Fantastic Beasts: The Secrets of Dumbledore [2022 CamRip 720p] MVO [КОЛОБОК] bober100 Скачать
52 | 1


Последний раз редактировалось: bober100 (2022-05-14 06:30), всего редактировалось 3 раз(а)

28-11-2019 20:33  

Отключить всю рекламу на сайте

11-05-2022 16:39 Фантастические твари: Тайны Дамблдора Скачать торрент  

редкое..... жаль...ждался фильм..... раздающему спасибо...piratbit.org



13-05-2022 10:48 Фантастические твари: Тайны Дамблдора Скачать торрент  

Grand merci piratbit.org



13-05-2022 13:07 Фантастические твари: Тайны Дамблдора Скачать торрент  

вопрос к тем кто посмотрел в данной озвучке фильм смотрибелен в этом дубляже?piratbit.org



13-05-2022 15:08 Фантастические твари: Тайны Дамблдора Скачать торрент  

M@loy писал(а):

вопрос к тем кто посмотрел в данной озвучке фильм смотрибелен в этом дубляже?

Фильм кусок говна тупого говна.piratbit.org



14-05-2022 07:04 Фантастические твари: Тайны Дамблдора Скачать торрент  

PupsiMax писал(а):

M@loy писал(а):

вопрос к тем кто посмотрел в данной озвучке фильм смотрибелен в этом дубляже?

Фильм кусок говна тупого говна.

Так точно.piratbit.org



14-05-2022 16:43 Фантастические твари: Тайны Дамблдора Скачать торрент  

ипаные субтитры корейские не отключаютьсяpiratbit.org



15-05-2022 13:42 Фантастические твари: Тайны Дамблдора Скачать торрент  

Фильм интересный, как и предыдущие части, но немного затянут. Смотреть можно, автору спасибо за релиз!piratbit.org



    Дорогой пользователь! Огромная просьба, поблагодарите релизера, оцените раздачу и оставьте свои комментарий, если Вы скачали Фантастические твари: Тайны Дамблдора через торрент бесплатно!
    Комментировать посты могут только пользователи прошедшие не сложную регистрацию
    Показать сообщения:    

    Фантастические твари: Тайны Дамблдора через торрент
    Скачать бесплатно Фантастические твари: Тайны Дамблдора
    Фантастические твари: Тайны Дамблдора скачать торрент
    Фантастические твари: Тайны Дамблдора смотреть онлайн
    Cкачать фильм Фантастические твари: Тайны Дамблдора бесплатно
    Фантастические твари: Тайны Дамблдора скачать торрент в хорошем качестве
    Фантастические твари: Тайны Дамблдора смотреть онлайн бесплатно в хорошем качестве


    Вы не можете начинать темы
    Вы не можете отвечать на сообщения
    Вы не можете редактировать свои сообщения
    Вы не можете удалять свои сообщения
    Вы не можете голосовать в опросах
    Вы не можете прикреплять файлы к сообщениям
    Вы можете скачивать файлы