Всегда рабочее зеркало без VPN и Proxy просто перед .vidak.icu напиши любое слово или цифру, Пример http://1rq5.vidak.icu

MVO

2 сезон

1 сезон

1

1 сезон

iTunes

2 сезон

13

1 сезон

Распродажа

pack

Рекомендуем

Пиратка

30

ВАЖНО

RePack

MK11

RePack

jed

RePack

fifa19

RePack

RDR2

RePack

NEED FOR SPEED™ PAYBACK

Кинопоиск HD

6 сезон

 Острые козырьки 6 сезон

Все сериалы

все сериалы на PB.wtf

RePack

FAR CRY 5

Anonymous, нам критически не хватает 5601 руб. на оплату серверов и переферии за Апрель, помоги нам пожалуйста, вся надежда только на тебя. В благодарность мы отключим тебе всю рекламу на сайте!

×
  
Magnet ссылка

Плохие парни / The Bad Guys (Роджер Аллерс) [2022 г., мультфильм, комедия, криминал, WEB-DLRip 720p / 60 FPS, Профессиональный (многоголосый)] от R.G. HD-Films piratbit.org

Плохие парни через торрент piratbit.org

Раздают: 31 [ 3 MB/s ] Качают: 2 [ 1 MB/s ]
Размер: 3.37 GB | Добавлен: 10 д. назад | Торрент скачан:169 раз
Смотреть онлайн Плохие парни | Скачать    Ребята, помогите собрать деньги на оплату серверов!!!

11-05-2022 07:53 Плохие парни Скачать торрент  

Плохие парни / The Bad Guys
Год выпуска: 2022
Страна: США
Жанр: мультфильм, комедия, криминал
Продолжительность: 01:40:01
Перевод: Профессиональный, многоголосый закадровый (TVShows)
Субтитры: English

Режиссер: Роджер Аллерс

Премьера в мире: 17 марта 2022

rating

В ролях: Сэм Рокуэлл, Марк Мэрон, Аквафина, Крэйг Робинсон, Энтони Рамос, Ричард Айоади, Зази Битц, Алекс Борштейн, Лилли Сингх, Барбара Гудсон, Дина Морроне, Майкл Годер, Келли Куни Силелла, Уолт Дорн, Дэвид П. Смит

Описание: Мир еще не видел столь искусных авантюристов: ловкий карманник Мистер Волк, опытный взломщик сейфов Мистер Змей, хладнокровный мастер маскировки Мистер Акула, вспыльчивый и мускулистый Мистер Пиранья, а также остроумная хакер высшего класса Мисс Тарантула. Однако даже самые умные преступники иногда допускают ошибки. Чтобы спастись от неминуемый тюрьмы, главарь банды Мистер Волк вынужден идти на крайние меры: «Плохие парни» должны измениться в лучшую сторону. Или сделать вид? Но когда новый злодей угрожает городу, сможет ли Мистер Волк убедить остальных действительно стать… хорошими ребятами?


Качество: WEB-DLRip 720p / 60 FPS
Формат: MKV
Видео кодек: H.264
Аудио кодек: AC3
Видео: x264, 1280 x 536 ( 2,40:1 ), 4625 kbps, 60,000 fps, ( 0.112 bpp)
Аудио#1: Русский, AC-3, 48.0 KHz, 2 ch, 192 Kbps MVO ( TVShows )
Релиз от: Автор рипа: slaventi-69
x264 [info]: profile High, level 4.1
x264 [info]: frame I:1567 Avg QP:17.26 size: 81410
x264 [info]: frame P:88169 Avg QP:18.32 size: 20870
x264 [info]: frame B:270337 Avg QP:20.69 size: 5555
x264 [info]: consecutive B-frames: 1.5% 5.9% 13.7% 12.4% 50.3% 16.0%


Общее
Уникальный идентификатор : 298839619676723080239669797481417468530 (0xE0D26ACE4E299EA46D2FA892A2B2EA72)
Полное имя : G:\60 FPS\The.Bad.Guys.(2022).WEB-DLRip.720p.(60 Fps).mkv
Формат : Matroska
Версия формата : Version 4
Размер файла : 3,37 Гбайт
Продолжительность : 1 ч. 40 м.
Общий поток : 4820 Кбит/сек
Название фильма : Плохие парни / The Bad Guys (2022) WEB-DLRip 720p (60 Fps)
Дата кодирования : UTC 2022-05-11 07:20:28
Программа кодирования : mkvmerge v25.0.0 ('Prog Noir') 64-bit
Библиотека кодирования : libebml v1.3.6 + libmatroska v1.4.9

Видео
Идентификатор : 1
Формат : AVC
Формат/Информация : Advanced Video Codec
Профиль формата : High@L4.1
Настройки формата : CABAC / 9 Ref Frames
Параметр CABAC формата : Да
Параметр RefFrames формата : 9 кадров
Идентификатор кодека : V_MPEG4/ISO/AVC
Продолжительность : 1 ч. 40 м.
Битрейт : 4625 Кбит/сек
Ширина : 1280 пикселей
Высота : 536 пикселей
Соотношение сторон : 2,40:1
Режим частоты кадров : Постоянный
Частота кадров : 60,000 кадров/сек
Цветовое пространство : YUV
Субдискретизация насыщенности : 4:2:0
Битовая глубина : 8 бит
Тип развёртки : Прогрессивная
Бит/(Пиксели*Кадры) : 0.112
Размер потока : 3,23 Гбайт (96%)
Заголовок : slaventi-69 ( R.G. HD-Films | 60 fps )
Библиотека кодирования : x264 core 130 r2273 b3065e6
Настройки программы : cabac=1 / ref=9 / deblock=1:-1:-1 / analyse=0x3:0x133 / me=umh / subme=9 / psy=1 / psy_rd=1.00:0.00 / mixed_ref=1 / me_range=32 / chroma_me=1 / trellis=2 / 8x8dct=1 / cqm=0 / deadzone=21,11 / fast_pskip=0 / chroma_qp_offset=-2 / threads=6 / lookahead_threads=2 / sliced_threads=0 / nr=0 / decimate=1 / interlaced=0 / bluray_compat=0 / constrained_intra=0 / bframes=5 / b_pyramid=2 / b_adapt=2 / b_bias=0 / direct=1 / weightb=1 / open_gop=0 / weightp=2 / keyint=600 / keyint_min=23 / scenecut=40 / intra_refresh=0 / rc=crf / mbtree=0 / crf=17.0 / qcomp=0.60 / qpmin=0 / qpmax=69 / qpstep=4 / ip_ratio=1.40 / pb_ratio=1.30 / aq=1:1.00
Язык : English
Default : Да
Forced : Нет

Аудио
Идентификатор : 2
Формат : AC-3
Формат/Информация : Audio Coding 3
Коммерческое название : Dolby Digital
Идентификатор кодека : A_AC3
Продолжительность : 1 ч. 40 м.
Вид битрейта : Постоянный
Битрейт : 192 Кбит/сек
Каналы : 2 канала
Channel layout : L R
Частота : 48,0 КГц
Частота кадров : 31,250 кадров/сек (1536 SPF)
Битовая глубина : 16 бит
Метод сжатия : С потерями
Размер потока : 137 Мбайт (4%)
Заголовок : MVO ( TVShows )
Язык : Russian
ServiceKind/String : Complete Main
Default : Да
Forced : Нет

Текст #1
Идентификатор : 3
Формат : UTF-8
Идентификатор кодека : S_TEXT/UTF8
Идентификатор кодека/Информация : UTF-8 Plain Text
Продолжительность : 1 ч. 32 м.
Битрейт : 73 бит/сек
ElementCount : 1775
Размер потока : 49,9 Кбайт (0%)
Язык : English
Default : Нет
Forced : Нет

Текст #2
Идентификатор : 4
Формат : UTF-8
Идентификатор кодека : S_TEXT/UTF8
Идентификатор кодека/Информация : UTF-8 Plain Text
Продолжительность : 1 ч. 39 м.
Битрейт : 87 бит/сек
ElementCount : 2288
Размер потока : 64,4 Кбайт (0%)
Заголовок : SDH
Язык : English
Default : Нет
Forced : Нет

Просьба к переливающим на другие сайты, в оформлении указывайте пожалуйста авторство группы R.G. HD-Films piratbit.org



Скачать Плохие парни через торрент https://i.postimg.cc/tJrGG9Ck/6lsuztdfj30brefeh8sf9s7k9.jpg Скачать, смотреть онлайн Плохие парни бесплантно в хорошем качестве Описание: Мир еще не видел столь искусных авантюристов: ловкий карманник Мистер Волк, опытный взломщик сейфов Мистер Змей, хладнокровный ... 10 10 9
Торрент: Зарегистрирован [2022-05-11 07:53] · скачан: 169 раз
Статус: √ проверено
Размер: 3.37 GB
Как cкачать? Как скачать Плохие парни через торрент | UTorrent

28-11-2019 20:33  

Отключить всю рекламу на сайте

    Дорогой пользователь! Огромная просьба, поблагодарите релизера, оцените раздачу и оставьте свои комментарий, если Вы скачали Плохие парни через торрент бесплатно!
    Комментировать посты могут только пользователи прошедшие не сложную регистрацию
    Показать сообщения:    

    Плохие парни через торрент
    Скачать бесплатно Плохие парни
    Плохие парни скачать торрент
    Плохие парни смотреть онлайн
    Cкачать фильм Плохие парни бесплатно
    Плохие парни скачать торрент в хорошем качестве
    Плохие парни смотреть онлайн бесплатно в хорошем качестве


    Вы не можете начинать темы
    Вы не можете отвечать на сообщения
    Вы не можете редактировать свои сообщения
    Вы не можете удалять свои сообщения
    Вы не можете голосовать в опросах
    Вы не можете прикреплять файлы к сообщениям
    Вы можете скачивать файлы