Всегда рабочее зеркало без VPN и Proxy просто перед .vidak.icu напиши любое слово или цифру, Пример http://lzpm.vidak.icu

MVO

2 сезон

2 сезон

1

1 сезон

iTunes

2 сезон

13

1 сезон

Deluxe

pack

Рекомендуем

Пиратка

30

ВАЖНО

RePack

MK11

RePack

jed

RePack

fifa19

RePack

RDR2

RePack

NEED FOR SPEED™ PAYBACK

Кинопоиск HD

6 сезон

 Острые козырьки 6 сезон

Все сериалы

все сериалы на PB.wtf

RePack

FAR CRY 5

Anonymous, нам критически не хватает 5601 руб. на оплату серверов и переферии за Апрель, помоги нам пожалуйста, вся надежда только на тебя. В благодарность мы отключим тебе всю рекламу на сайте!

×
  
Magnet ссылка

Добро пожаловать в семью (Владимир Зинкевич) [2021, Комедия, криминал, мелодрама, WEB-DL 1080p] [КиноПоиск HD] piratbit.org

Добро пожаловать в семью через торрент piratbit.org

Раздают: 29 [ 2 MB/s ] Качают: 3 [ 0 KB/s ]
Размер: 5.38 GB | Добавлен: 8 д. назад | Торрент скачан:195 раз
Смотреть онлайн Добро пожаловать в семью | Скачать    Ребята, помогите собрать деньги на оплату серверов!!!

12-05-2022 01:53 Добро пожаловать в семью Скачать торрент  

Добро пожаловать в семью
Год выпуска: 2021
Страна: Беларусь
Студия: АвантДрайв
Жанр: Комедия, криминал, мелодрама
Продолжительность: 01:52:02
Перевод: Не требуется | КиноПоиск HD
Субтитры: отсутствуют

Режиссер: Владимир Зинкевич



В ролях: Владимир Сычев, Светлана Камынина, Пётр Буслов, Кристина Строителева, Вячеслав Морозов, Ростислав Бершауэр, Алексей Маслодудов, Юлия Топольницкая, Торнике Квитатиани, Сергей Иванюк, Дмитрий Красилов, Игорь Ясулович, Елена Санаева, Марина Поддубная, Евгений Пахомов, Герман Дятко, Кирилл Полухин, Антон Колесников, Данила Лебедев, Константин Мурзенко

Описание: Леонид Иванович - Крестный отец. В этом мире он любит лишь две вещи: быть Крестным отцом и свою дочь Миру. Чтобы не разгневать босса, Миру все обходят стороной. Кроме Саши, который ничего не знал про семью, и просто влюбился с первого взгляда. Теперь у него непростая задача - не лишиться руки и сердца до свадьбы.

Качество: WEB-DL 1080p
Формат: MKV

Видео: MPEG-4 AVC, 6000 Кбит/с, 1920x804
Аудио #01: AC3, 6 ch, 448 Кбит/с | RUS
Аудио #02: E-AC3, 6 ch, 448 Кбит/с | RUS
скриншот  скриншот  скриншот  скриншот  скриншот  скриншот  

Общее
Уникальный идентификатор : 109798562263181094536590973073264495365 (0x529A6F13809BE2ED9DC95780ECE04B05)
Полное имя : F:Dobro.pozhalovat.v.semyu.2021.WEB-DL.1080p.mkv
Формат : Matroska
Версия формата : Version 4
Размер файла : 5,38 Гбайт
Продолжительность : 1 ч. 52 м.
Общий поток : 6 868 Кбит/сек
Название фильма : Dobro.pozhalovat.v.semyu.2021.WEB-DL.1080p
Дата кодирования : UTC 2022-05-11 23:19:21
Программа кодирования : mkvmerge v66.0.0 ('Josie') 64-bit
Библиотека кодирования : libebml v1.4.2 + libmatroska v1.6.4
Attachments : poster.jpg

Видео
Идентификатор : 1
Формат : AVC
Формат/Информация : Advanced Video Codec
Профиль формата : High@L4
Настройки формата : CABAC / 5 Ref Frames
Параметр CABAC формата : Да
Параметр RefFrames формата : 5 кадров
Идентификатор кодека : V_MPEG4/ISO/AVC
Продолжительность : 1 ч. 52 м.
Битрейт : 6 000 Кбит/сек
Ширина : 1 920 пикселей
Высота : 804 пикселя
Соотношение сторон : 2,40:1
Режим частоты кадров : Постоянный
Частота кадров : 25,000 кадров/сек
Цветовое пространство : YUV
Субдискретизация насыщенности : 4:2:0
Битовая глубина : 8 бит
Тип развёртки : Прогрессивная
Бит/(Пиксели*Кадры) : 0.155
Размер потока : 4,67 Гбайт (87%)
Библиотека кодирования : x264 core 157
Настройки программы : cabac=1 / ref=5 / deblock=1:0:0 / analyse=0x3:0x133 / me=umh / subme=10 / psy=1 / psy_rd=1.00:0.00 / mixed_ref=1 / me_range=24 / chroma_me=1 / trellis=2 / 8x8dct=1 / cqm=0 / deadzone=21,11 / fast_pskip=1 / chroma_qp_offset=-2 / threads=25 / lookahead_threads=4 / sliced_threads=0 / nr=0 / decimate=1 / interlaced=0 / bluray_compat=0 / constrained_intra=0 / bframes=8 / b_pyramid=2 / b_adapt=2 / b_bias=0 / direct=3 / weightb=1 / open_gop=0 / weightp=2 / keyint=250 / keyint_min=25 / scenecut=40 / intra_refresh=0 / rc_lookahead=60 / rc=2pass / mbtree=1 / bitrate=6000 / ratetol=1.0 / qcomp=0.60 / qpmin=0 / qpmax=69 / qpstep=4 / cplxblur=20.0 / qblur=0.5 / vbv_maxrate=6600 / vbv_bufsize=24000 / nal_hrd=none / filler=0 / ip_ratio=1.40 / aq=1:1.00
Default : Да
Forced : Нет

Аудио #1
Идентификатор : 2
Формат : AC-3
Формат/Информация : Audio Coding 3
Коммерческое название : Dolby Digital
Идентификатор кодека : A_AC3
Продолжительность : 1 ч. 52 м.
Вид битрейта : Постоянный
Битрейт : 448 Кбит/сек
Каналы : 6 каналов
Channel layout : L R C LFE Ls Rs
Частота : 48,0 КГц
Частота кадров : 31,250 кадров/сек (1536 SPF)
Метод сжатия : С потерями
Размер потока : 359 Мбайт (7%)
Заголовок : [AC3 Audio]
Язык : Russian
Service kind : Complete Main
Default : Да
Forced : Нет

Аудио #2
Идентификатор : 3
Формат : E-AC-3
Формат/Информация : Enhanced AC-3
Коммерческое название : Dolby Digital Plus
Идентификатор кодека : A_EAC3
Продолжительность : 1 ч. 52 м.
Вид битрейта : Постоянный
Битрейт : 448 Кбит/сек
Каналы : 6 каналов
Channel layout : L R C LFE Ls Rs
Частота : 48,0 КГц
Частота кадров : 31,250 кадров/сек (1536 SPF)
Метод сжатия : С потерями
Размер потока : 359 Мбайт (7%)
Заголовок : [E-AC3 Audio]
Язык : Russian
Service kind : Complete Main
Default : Нет
Forced : Нет

piratbit.org



Скачать Добро пожаловать в семью через торрент https://i117.fastpic.org/big/2022/0512/85/945e2199a7c92126f2917cf3a812e885.png Скачать, смотреть онлайн Добро пожаловать в семью бесплантно в хорошем качестве Описание: Леонид Иванович - Крестный отец. В этом мире он любит лишь две вещи: быть Крестным отцом и свою дочь Миру. Чтобы не разгневать ... 9.2 10 12
Торрент: Зарегистрирован [2022-05-12 01:53] · скачан: 195 раз
Статус: √ проверено
Размер: 5.38 GB
Как cкачать? Как скачать Добро пожаловать в семью через торрент | UTorrent

% Раздел Тема Автор DL S | L
Наши новые фильмы 2020 - 2022 [ 747 MB ] Добро пожаловать в семью [2021 WEB-DLRip] [Кинопоиск HD] bober100 Скачать
5 | 0
Наши новые фильмы 2020 - 2022 [ 1.85 GB ] Добро пожаловать в семью [2021 WEB-DLRip-AVC] [КиноПоиск HD] bober100 Скачать
10 | 0
Наши фильмы (HD, WEB-DL 720p, 1080p) [ 3.47 GB ] Добро пожаловать в семью [2021 WEB-DL 720p] [КиноПоиск HD] bober100 Скачать
14 | 0
Наши новые фильмы 2020 - 2022 [ 1.46 GB ] Добро пожаловать в семью [2021 WEB-DLRip] [Кинопоиск HD] bober100 Скачать
23 | 0

28-11-2019 20:33  

Отключить всю рекламу на сайте

12-05-2022 14:41 Добро пожаловать в семью Скачать торрент  

Отличная криминальная комедия! Спасибо за релиз!piratbit.org



13-05-2022 14:07 Добро пожаловать в семью Скачать торрент  

Поддерживаю, приятный фильм, к просмотру рекомендуется.piratbit.org



13-05-2022 15:56 Добро пожаловать в семью Скачать торрент  

Интересно будет посмотреть на Торнике в новом амплуаpiratbit.org



    Дорогой пользователь! Огромная просьба, поблагодарите релизера, оцените раздачу и оставьте свои комментарий, если Вы скачали Добро пожаловать в семью через торрент бесплатно!
    Комментировать посты могут только пользователи прошедшие не сложную регистрацию
    Показать сообщения:    

    Добро пожаловать в семью через торрент
    Скачать бесплатно Добро пожаловать в семью
    Добро пожаловать в семью скачать торрент
    Добро пожаловать в семью смотреть онлайн
    Cкачать фильм Добро пожаловать в семью бесплатно
    Добро пожаловать в семью скачать торрент в хорошем качестве
    Добро пожаловать в семью смотреть онлайн бесплатно в хорошем качестве


    Вы не можете начинать темы
    Вы не можете отвечать на сообщения
    Вы не можете редактировать свои сообщения
    Вы не можете удалять свои сообщения
    Вы не можете голосовать в опросах
    Вы не можете прикреплять файлы к сообщениям
    Вы можете скачивать файлы