Всегда рабочее зеркало без VPN и Proxy просто перед .vidak.icu напиши любое слово или цифру, Пример http://x30c.vidak.icu

MVO

2 сезон

2 сезон

1

1 сезон

iTunes

2 сезон

13

1 сезон

Deluxe

pack

Рекомендуем

Пиратка

30

ВАЖНО

RePack

MK11

RePack

jed

RePack

fifa19

RePack

RDR2

RePack

NEED FOR SPEED™ PAYBACK

Кинопоиск HD

6 сезон

 Острые козырьки 6 сезон

Все сериалы

все сериалы на PB.wtf

RePack

FAR CRY 5

Anonymous, нам критически не хватает 5601 руб. на оплату серверов и переферии за Апрель, помоги нам пожалуйста, вся надежда только на тебя. В благодарность мы отключим тебе всю рекламу на сайте!

×
  
Magnet ссылка

Прятки / Hide and Seek (Джоэль Мур) [2019, Триллер, криминал, WEB-DL 1080p] DUB [iTunes] piratbit.org

Прятки через торрент piratbit.org

Раздают: 6 [ 1 MB/s ]
Размер: 4.39 GB | Добавлен: 8 д. назад | Торрент скачан:55 раз
Смотреть онлайн Прятки | Скачать    Ребята, помогите собрать деньги на оплату серверов!!!

12-05-2022 11:57 Прятки Скачать торрент  

Прятки
Hide and Seek

Год выпуска: 2019
Страна: США
Выпущено: Big Indie Pictures, CJ Entertainment
Жанр: Триллер, криминал
Продолжительность: 01:23:42
Перевод: Дублированный | iTunes
Субтитры: отсутствуют

Режиссер: Джоэль Мур

rating

В ролях: Джонатан Риз Майерс, Джо Пантольяно, Джасинда Бэрретт, Джеффри Оуэнс, Мустафа Жакир, Барбара Розенблат, Марселла Ленц-Поуп, Майкл Годер, Куинн Маккоулган, Паскаль Йен Пфистер

Описание: Состоятельный бизнесмен идёт по следу без вести пропавшего брата. Чтобы найти его, придется на время лишиться шикарной жизни на Манхэттене и упасть на самое дно Нью-Йорка, в извращённый преступный мир, вселяющий страх и скрывающий убийства. Что если он никогда не выберется назад?

Качество: WEB-DL 1080p
Формат: MKV

Видео: MPEG-4 AVC, 6732 Кбит/с, 1916x796
Аудио#1 Rus: 48 kHz, AC3 Dolby Digital, 3/2 (L, C, R, l, r) + LFE ch, ~384 Kbps
Аудио#2 Eng: 48 kHz, AC3 Dolby Digital, 3/2 (L, C, R, l, r) + LFE ch, ~384 Kbps

Complete name : Pryatki.2019.WEB-DL.1080p.ELEKTRI4KA.UNIONGANG.mkv
Format : Matroska
Format version : Version 4
File size : 4.39 GiB
Duration : 1 h 23 min
Overall bit rate : 7 502 kb/s
Movie name : Pryatki.2019.WEB-DL.1080p.ELEKTRI4KA.UNIONGANG.
Encoded date : UTC 2022-05-12 11:22:04
Writing application : mkvmerge v8.3.0 ('Over the Horizon') 32bit
Writing library : libebml v1.3.1 + libmatroska v1.4.2

Video
ID : 1
Format : AVC
Format/Info : Advanced Video Codec
Format profile : High@L4
Format settings : CABAC / 5 Ref Frames
Format settings, CABAC : Yes
Format settings, Reference frames : 5 frames
Codec ID : V_MPEG4/ISO/AVC
Duration : 1 h 23 min
Bit rate : 6 732 kb/s
Width : 1 916 pixels
Height : 796 pixels
Display aspect ratio : 2.40:1
Frame rate mode : Constant
Frame rate : 23.976 (24000/1001) FPS
Color space : YUV
Chroma subsampling : 4:2:0
Bit depth : 8 bits
Scan type : Progressive
Bits/(Pixel*Frame) : 0.184
Stream size : 3.94 GiB (90%)
Default : Yes
Forced : No
Color range : Limited
Color primaries : BT.709
Transfer characteristics : BT.709
Matrix coefficients : BT.709

Audio #1
ID : 2
Format : AC-3
Format/Info : Audio Coding 3
Commercial name : Dolby Digital
Codec ID : A_AC3
Duration : 1 h 23 min
Bit rate mode : Constant
Bit rate : 384 kb/s
Channel(s) : 6 channels
Channel layout : L R C LFE Ls Rs
Sampling rate : 48.0 kHz
Frame rate : 31.250 FPS (1536 SPF)
Compression mode : Lossy
Stream size : 229 MiB (5%)
Title : DUB (iTunes)
Language : Russian
Service kind : Complete Main
Default : Yes
Forced : Yes

Audio #2
ID : 3
Format : AC-3
Format/Info : Audio Coding 3
Commercial name : Dolby Digital
Codec ID : A_AC3
Duration : 1 h 23 min
Bit rate mode : Constant
Bit rate : 384 kb/s
Channel(s) : 6 channels
Channel layout : L R C LFE Ls Rs
Sampling rate : 48.0 kHz
Frame rate : 31.250 FPS (1536 SPF)
Compression mode : Lossy
Stream size : 230 MiB (5%)
Title : Original
Language : English
Service kind : Complete Main
Default : No
Forced : No

piratbit.org



Скачать Прятки через торрент https://i117.fastpic.org/big/2022/0512/d0/5368d4dc1eaaf7b34f806db3124975d0.jpg Скачать, смотреть онлайн Прятки бесплантно в хорошем качестве Описание: Состоятельный бизнесмен идёт по следу без вести пропавшего брата. Чтобы найти его, придется на время лишиться шикарной жизни на ... 10 10 4
Торрент: Зарегистрирован [2022-05-12 11:57] · скачан: 55 раз
Статус: √ проверено
Размер: 4.39 GB
Как cкачать? Как скачать Прятки через торрент | UTorrent

% Раздел Тема Автор DL S | L
Фильмы 2019-2020 [DVDrip, WEB-DLRip, HDrip] (DUB, MVO) [ 744 MB ] Прятки / Hide and Seek [2019 WEB-DLRip] bober100 Скачать
4 | 0
Фильмы 2019-2020 [DVDrip, WEB-DLRip, HDrip] (DUB, MVO) [ 1.38 GB ] Прятки / Hide and Seek [2019 WEB-DLRip-AVC] bober100 Скачать
9 | 0
Фильмы 2019-2020 [DVDrip, WEB-DLRip, HDrip] (DUB, MVO) [ 1.37 GB ] Прятки / Hide and Seek [2019 WEB-DLRip] bober100 Скачать
6 | 0
R.G. Resident & PiratVoice - Фильмы, Видео [ 3.29 GB ] Игра в прятки / Hide and Seek [2005 BDRip-AVC от R.G. Resident] DUB MVO AVO -Lexx- Скачать
1 | 0
Фильмы 2001-2005 [ 1.46 GB ] Игра в прятки / Hide and Seek [2004 BDRip] jingles Скачать
1 | 0
Фильмы 2009 [ 1.37 GB ] Жуткие прятки / Creepy Hide and Seek [2009 DVDRip найдено в сети] KING_S Скачать
1 | 0
Фильмы 2001-2005 [ 2.18 GB ] Игра в прятки / Hide and Seek [2004 BDRip] -=BIGBOSS=- Скачать
1 | 0

28-11-2019 20:33  

Отключить всю рекламу на сайте

    Дорогой пользователь! Огромная просьба, поблагодарите релизера, оцените раздачу и оставьте свои комментарий, если Вы скачали Прятки через торрент бесплатно!
    Комментировать посты могут только пользователи прошедшие не сложную регистрацию
    Показать сообщения:    

    Прятки через торрент
    Скачать бесплатно Прятки
    Прятки скачать торрент
    Прятки смотреть онлайн
    Cкачать фильм Прятки бесплатно
    Прятки скачать торрент в хорошем качестве
    Прятки смотреть онлайн бесплатно в хорошем качестве


    Вы не можете начинать темы
    Вы не можете отвечать на сообщения
    Вы не можете редактировать свои сообщения
    Вы не можете удалять свои сообщения
    Вы не можете голосовать в опросах
    Вы не можете прикреплять файлы к сообщениям
    Вы можете скачивать файлы