Всегда рабочее зеркало без VPN и Proxy просто перед .vidak.icu напиши любое слово или цифру, Пример http://4q0h.vidak.icu

MVO

2 сезон

2 сезон

1

1 сезон

iTunes

2 сезон

13

1 сезон

Deluxe

pack

Рекомендуем

Пиратка

30

ВАЖНО

RePack

MK11

RePack

jed

RePack

fifa19

RePack

RDR2

RePack

NEED FOR SPEED™ PAYBACK

Кинопоиск HD

6 сезон

 Острые козырьки 6 сезон

Все сериалы

все сериалы на PB.wtf

RePack

FAR CRY 5

Anonymous, нам критически не хватает 5601 руб. на оплату серверов и переферии за Апрель, помоги нам пожалуйста, вся надежда только на тебя. В благодарность мы отключим тебе всю рекламу на сайте!

×
  
Magnet ссылка

Король Стейтен-Айленда / The King of Staten Island (Джудд Апатоу) [2020, Драма, комедия, HDRip-AVC] DUB [Netflix] от ExKinoRay piratbit.org

Король Стейтен-Айленда через торрент piratbit.org

Раздают: 4 [ 90 KB/s ]
Размер: 2.76 GB | Добавлен: 8 д. назад | Торрент скачан:43 раза
Смотреть онлайн Король Стейтен-Айленда | Скачать    Ребята, помогите собрать деньги на оплату серверов!!!

12-05-2022 14:48 Король Стейтен-Айленда Скачать торрент  


Король Стейтен-Айленда / The King of Staten Island
Информация о фильме:
Название: Король Стейтен-Айленда
Оригинальное название: The King of Staten Island
Год выхода: 2020
Жанр: Драма, комедия
Режиссер: Джудд Апатоу
В ролях: Пит Дэвидсон, Мариса Томей, Билл Бёрр, Бел Паули, Мод Апатоу, Стив Бушеми, Рики Велес, Мойзес Ариас, Лу Уилсон, Карли Аквилино

Описание: 24-летний инфантил по имени Скотт живёт с мамой и младшей сестрой в нью-йоркском районе Стейтен-Айленд. С самого детства парень не может смириться со смертью отца-пожарного и теперь всё время проводит за курением травки и набиванием друзьям кривых татуировок. Когда сестра уезжает в колледж, а его мама впервые после смерти мужа начинает встречаться с мужчиной, тоже пожарным, Скотт решает, что такие перемены в жизни ему не нужны, и теперь он будет пытаться расстроить мамины отношения.



Страна: США
Студия: Apatow Productions, Perfect World Pictures, Universal Pictures
Продолжительность: 02:17:15
Перевод: Дублированный - Netflix



Информация о файле:
Кодек: AVC
Формат: MKV
Качество: HDRip-AVC
Видео: MPEG-4 AVC, 1024x428, 23.976 fps, 1980 kb/s
Аудио RU: AC3, 6 ch, 48 kHz, 448 kbps
Аудио EN: AC3, 6 ch, 48 kHz, 448 kbps
Субтитры: Русские (Forced, full), английские



General
Unique ID : 188806614938394819353768203522652990648 (0x8E0AD4D2C0950D5EF8B968BF07B36CB8)
Complete name : D:uTorrentРипы wolf1245The King of Staten Island.2020.DUB.Netflix.x264.HDRip-AVC.[wolf1245.ExKinoRay].mkv
Format : Matroska
Format version : Version 4
File size : 2.76 GiB
Duration : 2 h 17 min
Overall bit rate : 2 877 kb/s
Movie name : The King of Staten Island.2020.DUB.Netflix.x264.HDRip-AVC.[wolf1245.ExKinoRay]
Encoded date : UTC 2022-05-10 18:41:28
Writing application : mkvmerge v67.0.0 ('Under Stars') 64-bit
Writing library : libebml v1.4.2 + libmatroska v1.6.4
Video
ID : 1
Format : AVC
Format/Info : Advanced Video Codec
Format profile : High@L4.1
Format settings : CABAC / 11 Ref Frames
Format settings, CABAC : Yes
Format settings, Reference frames : 11 frames
Codec ID : V_MPEG4/ISO/AVC
Duration : 2 h 17 min
Bit rate : 1 980 kb/s
Width : 1 024 pixels
Height : 428 pixels
Display aspect ratio : 2.40:1
Frame rate mode : Constant
Frame rate : 23.976 (24000/1001) FPS
Color space : YUV
Chroma subsampling : 4:2:0
Bit depth : 8 bits
Scan type : Progressive
Bits/(Pixel*Frame) : 0.188
Stream size : 1.90 GiB (69%)
Title : -=[wolf1245.ExKinoRay]=-
Writing library : x264 core 163 r3060 5db6aa6
Encoding settings : cabac=1 / ref=11 / deblock=1:-3:-3 / analyse=0x3:0x133 / me=umh / subme=11 / psy=1 / psy_rd=1.05:0.15 / mixed_ref=1 / me_range=32 / chroma_me=1 / trellis=2 / 8x8dct=1 / cqm=0 / deadzone=22,11 / fast_pskip=1 / chroma_qp_offset=-3 / threads=10 / lookahead_threads=2 / sliced_threads=0 / nr=0 / decimate=0 / interlaced=0 / bluray_compat=0 / constrained_intra=0 / bframes=10 / b_pyramid=2 / b_adapt=2 / b_bias=0 / direct=3 / weightb=1 / open_gop=0 / weightp=2 / keyint=240 / keyint_min=24 / scenecut=40 / intra_refresh=0 / rc_lookahead=60 / rc=2pass / mbtree=0 / bitrate=1980 / ratetol=1.0 / qcomp=0.60 / qpmin=0 / qpmax=69 / qpstep=4 / cplxblur=20.0 / qblur=0.5 / vbv_maxrate=50000 / vbv_bufsize=62500 / nal_hrd=none / filler=0 / ip_ratio=1.40 / pb_ratio=1.30 / aq=1:1.10
Language : English
Default : Yes
Forced : No
Audio #1
ID : 2
Format : AC-3
Format/Info : Audio Coding 3
Commercial name : Dolby Digital
Codec ID : A_AC3
Duration : 2 h 17 min
Bit rate mode : Constant
Bit rate : 448 kb/s
Channel(s) : 6 channels
Channel layout : L R C LFE Ls Rs
Sampling rate : 48.0 kHz
Frame rate : 31.250 FPS (1536 SPF)
Compression mode : Lossy
Stream size : 440 MiB (16%)
Title : DUB | Netflix | RUS
Language : Russian
Service kind : Complete Main
Default : Yes
Forced : No
Audio #2
ID : 3
Format : AC-3
Format/Info : Audio Coding 3
Commercial name : Dolby Digital
Codec ID : A_AC3
Duration : 2 h 17 min
Bit rate mode : Constant
Bit rate : 448 kb/s
Channel(s) : 6 channels
Channel layout : L R C LFE Ls Rs
Sampling rate : 48.0 kHz
Frame rate : 31.250 FPS (1536 SPF)
Compression mode : Lossy
Stream size : 440 MiB (16%)
Title : Original | ENG
Language : English
Service kind : Complete Main
Default : Yes
Forced : No
Text #1
ID : 4
Format : UTF-8
Codec ID : S_TEXT/UTF8
Codec ID/Info : UTF-8 Plain Text
Duration : 2 h 6 min
Bit rate : 1 b/s
Count of elements : 28
Stream size : 1.09 KiB (0%)
Title : Forced [Netflix]
Language : Russian
Default : Yes
Forced : Yes
Text #2
ID : 5
Format : UTF-8
Codec ID : S_TEXT/UTF8
Codec ID/Info : UTF-8 Plain Text
Duration : 2 h 15 min
Bit rate : 141 b/s
Count of elements : 2607
Stream size : 141 KiB (0%)
Title : Full [Netflix]
Language : Russian
Default : No
Forced : No
Text #3
ID : 6
Format : UTF-8
Codec ID : S_TEXT/UTF8
Codec ID/Info : UTF-8 Plain Text
Duration : 2 h 9 min
Bit rate : 103 b/s
Count of elements : 2648
Stream size : 98.8 KiB (0%)
Title : Full
Language : English
Default : No
Forced : No
Menu
00:00:00.000 : :Chapter 01
00:07:59.771 : :Chapter 02
00:15:21.796 : :Chapter 03
00:21:31.665 : :Chapter 04
00:30:29.953 : :Chapter 05
00:35:49.773 : :Chapter 06
00:43:32.276 : :Chapter 07
00:51:07.439 : :Chapter 08
00:58:17.452 : :Chapter 09
01:06:46.669 : :Chapter 10
01:11:39.921 : :Chapter 11
01:16:35.925 : :Chapter 12
01:21:36.934 : :Chapter 13
01:29:12.097 : :Chapter 14
01:34:21.865 : :Chapter 15
01:41:33.296 : :Chapter 16
01:46:17.246 : :Chapter 17
01:56:30.233 : :Chapter 18
02:04:11.027 : :Chapter 19
02:11:48.859 : :Chapter 20
Релиз от:
Автор релиза:
piratbit.org



Скачать Король Стейтен-Айленда через торрент http://i117.fastpic.org/big/2022/0510/a5/03cf6452b0976b12ef7b6ee3c3df4da5.png Скачать, смотреть онлайн Король Стейтен-Айленда бесплантно в хорошем качестве Описание: 24-летний инфантил по имени Скотт живёт с мамой и младшей сестрой в нью-йоркском районе Стейтен-Айленд. С самого детства парень ... 10 10 2
Info! Золотая раздача, скачанное не засчитывается.
Торрент: Зарегистрирован [2022-05-12 14:48] · скачан: 43 раз
Статус: √ проверено
Размер: 2.76 GB
Как cкачать? Как скачать Король Стейтен-Айленда через торрент | UTorrent

28-11-2019 20:33  

Отключить всю рекламу на сайте

    Дорогой пользователь! Огромная просьба, поблагодарите релизера, оцените раздачу и оставьте свои комментарий, если Вы скачали Король Стейтен-Айленда через торрент бесплатно!
    Комментировать посты могут только пользователи прошедшие не сложную регистрацию
    Показать сообщения:    

    Король Стейтен-Айленда через торрент
    Скачать бесплатно Король Стейтен-Айленда
    Король Стейтен-Айленда скачать торрент
    Король Стейтен-Айленда смотреть онлайн
    Cкачать фильм Король Стейтен-Айленда бесплатно
    Король Стейтен-Айленда скачать торрент в хорошем качестве
    Король Стейтен-Айленда смотреть онлайн бесплатно в хорошем качестве


    Вы не можете начинать темы
    Вы не можете отвечать на сообщения
    Вы не можете редактировать свои сообщения
    Вы не можете удалять свои сообщения
    Вы не можете голосовать в опросах
    Вы не можете прикреплять файлы к сообщениям
    Вы можете скачивать файлы