Всегда рабочее зеркало без VPN и Proxy просто перед .vidak.icu напиши любое слово или цифру, Пример http://s0hb.vidak.icu

MVO

2 сезон

1 сезон

1

1 сезон

iTunes

2 сезон

13

1 сезон

Распродажа

pack

Рекомендуем

Пиратка

30

ВАЖНО

RePack

MK11

RePack

jed

RePack

fifa19

RePack

RDR2

RePack

NEED FOR SPEED™ PAYBACK

Кинопоиск HD

6 сезон

 Острые козырьки 6 сезон

Все сериалы

все сериалы на PB.wtf

RePack

FAR CRY 5

Anonymous, нам критически не хватает 5601 руб. на оплату серверов и переферии за Апрель, помоги нам пожалуйста, вся надежда только на тебя. В благодарность мы отключим тебе всю рекламу на сайте!

×
  
Magnet ссылка

Прятки / Hide and Seek (Джоэль Мур) [2019, Триллер, криминал, WEB-DLRip-AVC] DUB [iTunes] piratbit.org

Прятки через торрент piratbit.org

Раздают: 6 [ 0 KB/s ]
Размер: 1.38 GB | Добавлен: 9 д. назад | Торрент скачан:47 раз
Смотреть онлайн Прятки | Скачать    Ребята, помогите собрать деньги на оплату серверов!!!

12-05-2022 16:22 Прятки Скачать торрент  

Прятки
Hide and Seek

Год выпуска: 2019
Страна: США
Выпущено: Big Indie Pictures, CJ Entertainment
Жанр: Триллер, криминал
Продолжительность: 01:23:42
Перевод: Дублированный | iTunes
Субтитры: английские

Режиссер: Джоэль Мур

rating

В ролях: Джонатан Риз Майерс, Джо Пантольяно, Джасинда Бэрретт, Джеффри Оуэнс, Мустафа Жакир, Барбара Розенблат, Марселла Ленц-Поуп, Майкл Годер, Куинн Маккоулган, Паскаль Йен Пфистер

Описание: Состоятельный бизнесмен идёт по следу без вести пропавшего брата. Чтобы найти его, придется на время лишиться шикарной жизни на Манхэттене и упасть на самое дно Нью-Йорка, в извращённый преступный мир, вселяющий страх и скрывающий убийства. Что если он никогда не выберется назад?

Качество: WEB-DLRip-AVC
Формат: MKV

Видео: MPEG-4 AVC, 1030x428 at 23.976 fps, x264@L4.1, ~1589 kbps
Аудио#1 Rus: 48 kHz, AC3 Dolby Digital, 3/2 (L, C, R, l, r) + LFE ch, ~384 Kbps
Аудио#2 Eng: 48 kHz, AC3 Dolby Digital, 3/2 (L, C, R, l, r) + LFE ch, ~384 Kbps
скриншот  скриншот  скриншот  скриншот  скриншот  

General
Unique ID : 106026081655689715649420128917014194048 (0x4FC3E16C07F6BFEB78CC284478E42780)
Complete name : L:Hide.and.Seek.2019.WEB-DLRip.x264.mkv
Format : Matroska
Format version : Version 4
File size : 1.38 GiB
Duration : 1 h 23 min
Overall bit rate : 2 358 kb/s
Encoded date : UTC 2022-05-12 15:53:45
Writing application : mkvmerge v63.0.0 ('Everything') 64-bit
Writing library : libebml v1.4.2 + libmatroska v1.6.4
Cover : Yes
Attachments : cover.jpg / cover 2.jpg

Video
ID : 1
Format : AVC
Format/Info : Advanced Video Codec
Format profile : High@L4.1
Format settings : CABAC / 10 Ref Frames
Format settings, CABAC : Yes
Format settings, Reference : 10 frames
Codec ID : V_MPEG4/ISO/AVC
Duration : 1 h 23 min
Bit rate : 1 589 kb/s
Width : 1 030 pixels
Height : 428 pixels
Display aspect ratio : 2.40:1
Frame rate mode : Constant
Frame rate : 23.976 (24000/1001) FPS
Color space : YUV
Chroma subsampling : 4:2:0
Bit depth : 8 bits
Scan type : Progressive
Bits/(Pixel*Frame) : 0.150
Stream size : 951 MiB (67%)
Title : -=DoMiNo=-
Writing library : x264 core 164 r3094 bfc87b7
Encoding settings : cabac=1 / ref=10 / deblock=1:-2:-2 / analyse=0x3:0x133 / me=umh / subme=10 / psy=1 / psy_rd=1.12:0.20 / mixed_ref=1 / me_range=32 / chroma_me=1 / trellis=2 / 8x8dct=1 / cqm=0 / deadzone=21,11 / fast_pskip=0 / chroma_qp_offset=-3 / threads=17 / lookahead_threads=3 / sliced_threads=0 / nr=0 / decimate=0 / interlaced=0 / bluray_compat=0 / constrained_intra=0 / bframes=10 / b_pyramid=2 / b_adapt=2 / b_bias=0 / direct=3 / weightb=1 / open_gop=0 / weightp=2 / keyint=250 / keyint_min=23 / scenecut=40 / intra_refresh=0 / rc_lookahead=60 / rc=crf / mbtree=0 / crf=18.5 / qcomp=0.65 / qpmin=0 / qpmax=69 / qpstep=4 / vbv_maxrate=50000 / vbv_bufsize=62500 / crf_max=0.0 / nal_hrd=none / filler=0 / ip_ratio=1.35 / pb_ratio=1.25 / aq=2:1.00
Language : English
Default : Yes
Forced : No
Color range : Limited
Color primaries : BT.709
Transfer characteristics : BT.709
Matrix coefficients : BT.709

Audio #1
ID : 2
Format : AC-3
Format/Info : Audio Coding 3
Commercial name : Dolby Digital
Codec ID : A_AC3
Duration : 1 h 23 min
Bit rate mode : Constant
Bit rate : 384 kb/s
Channel(s) : 6 channels
Channel layout : L R C LFE Ls Rs
Sampling rate : 48.0 kHz
Frame rate : 31.250 FPS (1536 SPF)
Compression mode : Lossy
Stream size : 229 MiB (16%)
Title : DUB
Language : Russian
Service kind : Complete Main
Default : Yes
Forced : Yes

Audio #2
ID : 3
Format : AC-3
Format/Info : Audio Coding 3
Commercial name : Dolby Digital
Codec ID : A_AC3
Duration : 1 h 23 min
Bit rate mode : Constant
Bit rate : 384 kb/s
Channel(s) : 6 channels
Channel layout : L R C LFE Ls Rs
Sampling rate : 48.0 kHz
Frame rate : 31.250 FPS (1536 SPF)
Compression mode : Lossy
Stream size : 230 MiB (16%)
Language : English
Service kind : Complete Main
Default : No
Forced : No

Text
ID : 4
Format : UTF-8
Codec ID : S_TEXT/UTF8
Codec ID/Info : UTF-8 Plain Text
Duration : 1 h 18 min
Bit rate : 37 b/s
Count of elements : 718
Stream size : 21.6 KiB (0%)
Language : English
Default : No
Forced : No

Menu
00:00:00.000 : :Глава 01
00:07:30.000 : :Глава 02
00:15:00.000 : :Глава 03
00:22:30.000 : :Глава 04
00:30:00.000 : :Глава 05
00:37:30.000 : :Глава 06
00:45:00.000 : :Глава 07
00:52:30.000 : :Глава 08
01:00:00.000 : :Глава 09
01:07:30.000 : :Глава 10
01:15:00.000 : :Глава 11
01:22:30.000 : :Глава 12

piratbit.org



Скачать Прятки через торрент https://i117.fastpic.org/big/2022/0512/d0/5368d4dc1eaaf7b34f806db3124975d0.jpg Скачать, смотреть онлайн Прятки бесплантно в хорошем качестве Описание: Состоятельный бизнесмен идёт по следу без вести пропавшего брата. Чтобы найти его, придется на время лишиться шикарной жизни на ... 10 10 4
Торрент: Зарегистрирован [2022-05-12 16:22] · скачан: 47 раз
Статус: √ проверено
Размер: 1.38 GB
Как cкачать? Как скачать Прятки через торрент | UTorrent

% Раздел Тема Автор DL S | L
Фильмы 2019-2020 [DVDrip, WEB-DLRip, HDrip] (DUB, MVO) [ 744 MB ] Прятки / Hide and Seek [2019 WEB-DLRip] bober100 Скачать
4 | 0
Фильмы 2019-2020 [DVDrip, WEB-DLRip, HDrip] (DUB, MVO) [ 1.37 GB ] Прятки / Hide and Seek [2019 WEB-DLRip] bober100 Скачать
4 | 0
Фильмы (WEB-DL 720p, 1080p) [ 4.39 GB ] Прятки / Hide and Seek [2019 WEB-DL 1080p] bober100 Скачать
10 | 0
R.G. Resident & PiratVoice - Фильмы, Видео [ 3.29 GB ] Игра в прятки / Hide and Seek [2005 BDRip-AVC от R.G. Resident] DUB MVO AVO -Lexx- Скачать
1 | 0
Фильмы 2001-2005 [ 1.46 GB ] Игра в прятки / Hide and Seek [2004 BDRip] jingles Скачать
1 | 0
Фильмы 2009 [ 1.37 GB ] Жуткие прятки / Creepy Hide and Seek [2009 DVDRip найдено в сети] KING_S Скачать
1 | 0
Фильмы 2001-2005 [ 2.18 GB ] Игра в прятки / Hide and Seek [2004 BDRip] -=BIGBOSS=- Скачать
1 | 0

28-11-2019 20:33  

Отключить всю рекламу на сайте

    Дорогой пользователь! Огромная просьба, поблагодарите релизера, оцените раздачу и оставьте свои комментарий, если Вы скачали Прятки через торрент бесплатно!
    Комментировать посты могут только пользователи прошедшие не сложную регистрацию
    Показать сообщения:    

    Прятки через торрент
    Скачать бесплатно Прятки
    Прятки скачать торрент
    Прятки смотреть онлайн
    Cкачать фильм Прятки бесплатно
    Прятки скачать торрент в хорошем качестве
    Прятки смотреть онлайн бесплатно в хорошем качестве


    Вы не можете начинать темы
    Вы не можете отвечать на сообщения
    Вы не можете редактировать свои сообщения
    Вы не можете удалять свои сообщения
    Вы не можете голосовать в опросах
    Вы не можете прикреплять файлы к сообщениям
    Вы можете скачивать файлы