Всегда рабочее зеркало без VPN и Proxy просто перед .vidak.icu напиши любое слово или цифру, Пример http://dfkg.vidak.icu

MVO

2 сезон

2 сезон

1

1 сезон

iTunes

2 сезон

13

1 сезон

Распродажа

pack

Рекомендуем

Пиратка

30

ВАЖНО

RePack

MK11

RePack

jed

RePack

fifa19

RePack

RDR2

RePack

NEED FOR SPEED™ PAYBACK

Кинопоиск HD

6 сезон

 Острые козырьки 6 сезон

Все сериалы

все сериалы на PB.wtf

RePack

FAR CRY 5

Anonymous, нам критически не хватает 5601 руб. на оплату серверов и переферии за Апрель, помоги нам пожалуйста, вся надежда только на тебя. В благодарность мы отключим тебе всю рекламу на сайте!

×
  
Magnet ссылка

Затерянный город / The Lost City (Аарон Ни, Адам Ни) [2022, Боевик, мелодрама, комедия, приключения, WEB-DLRip-AVC] MVO [Jaskier] от ExKinoRay piratbit.org

Затерянный город через торрент piratbit.org

Раздают: 73 [ 3 MB/s ] Качают: 3 [ 0 KB/s ]
Размер: 2.24 GB | Добавлен: 8 д. назад | Торрент скачан:430 раз
Смотреть онлайн Затерянный город | Скачать    Ребята, помогите собрать деньги на оплату серверов!!!

12-05-2022 17:23 Затерянный город Скачать торрент  


Затерянный город / The Lost City
Информация о фильме:
Название: Затерянный город
Оригинальное название: The Lost City
Год выхода: 2022
Жанр: Боевик, мелодрама, комедия, приключения
Режиссер: Аарон Ни, Адам Ни
В ролях: Сандра Баллок, Ченнинг Татум, Дэниэл Рэдклифф, Да Вин Джой Рэндольф, Оскар Нуньес, Патти Харрисон, Брэд Питт, Рэймонд Ли, Томас Форбс-Джонсон, Эктор Анибал

Описание: Лоретта Сейдж пишет популярные любовно-приключенческие романы. События в них непременно разворачиваются в экзотических местах, а главный герой — красавчик и мечта героинь Дэш, которого в жизни воплощает модель Алан. Во время промотура нового бестселлера Лоретту похищает эксцентричный миллиардер, уверенный, что она сможет привести его к сокровищам древнего затерянного города из ее последней книги. Алан решает доказать, что может быть героем в реальной жизни, а не только на страницах книг, и отправляется Лоретте на выручку.

rating
Страна: США
Студия: 3dot productions, Exhibit A, Fortis Films, Paramount Pictures
Продолжительность: 01:51:45
Перевод: Профессиональный (многоголосый, закадровый) - Jaskier



Информация о файле:
Кодек: AVC
Формат: MKV
Качество: WEB-DLRip-AVC
Видео: MPEG-4 AVC, 1024x426, 23.976 fps, 1980 kbps
Аудио RU: AC3, 6 ch, 48 kHz, 448 kbps
Аудио EN: AC3, 6 ch, 48 kHz, 448 kbps
Субтитры: Русские (Full), английские



x264 info: frame I:1494 Avg QP:14.57 size: 71478
x264 info: frame P:40601 Avg QP:17.97 size: 20623
x264 info: frame B:118668 Avg QP:20.06 size: 6011
General
Unique ID : 242579546164670073675113554898409262370 (0xB67F1F06024F3F283896E5FD6C7C8D22)
Complete name : D:uTorrentРипы wolf1245The Lost City.2022.MVO.Jaskier.x264.WEB-DLRip-AVC.[wolf1245.ExKinoRay].mkv
Format : Matroska
Format version : Version 4
File size : 2.24 GiB
Duration : 1 h 51 min
Overall bit rate : 2 876 kb/s
Movie name : The Lost City.2022.MVO.Jaskier.x264.WEB-DLRip-AVC.[wolf1245.ExKinoRay]
Encoded date : UTC 2022-05-12 17:05:34
Writing application : mkvmerge v67.0.0 ('Under Stars') 64-bit
Writing library : libebml v1.4.2 + libmatroska v1.6.4
Video
ID : 1
Format : AVC
Format/Info : Advanced Video Codec
Format profile : High@L4.1
Format settings : CABAC / 12 Ref Frames
Format settings, CABAC : Yes
Format settings, Reference frames : 12 frames
Codec ID : V_MPEG4/ISO/AVC
Duration : 1 h 51 min
Bit rate : 1 980 kb/s
Width : 1 024 pixels
Height : 426 pixels
Display aspect ratio : 2.40:1
Frame rate mode : Constant
Frame rate : 23.976 (24000/1001) FPS
Color space : YUV
Chroma subsampling : 4:2:0
Bit depth : 8 bits
Scan type : Progressive
Bits/(Pixel*Frame) : 0.189
Stream size : 1.54 GiB (69%)
Title : -=[wolf1245.ExKinoRay]=-
Writing library : x264 core 163 r3060 5db6aa6
Encoding settings : cabac=1 / ref=12 / deblock=1:-3:-2 / analyse=0x3:0x133 / me=umh / subme=11 / psy=1 / psy_rd=1.05:0.15 / mixed_ref=1 / me_range=32 / chroma_me=1 / trellis=2 / 8x8dct=1 / cqm=0 / deadzone=22,11 / fast_pskip=1 / chroma_qp_offset=-3 / threads=10 / lookahead_threads=2 / sliced_threads=0 / nr=0 / decimate=0 / interlaced=0 / bluray_compat=0 / constrained_intra=0 / bframes=10 / b_pyramid=2 / b_adapt=2 / b_bias=0 / direct=3 / weightb=1 / open_gop=0 / weightp=2 / keyint=240 / keyint_min=24 / scenecut=40 / intra_refresh=0 / rc_lookahead=60 / rc=2pass / mbtree=0 / bitrate=1980 / ratetol=1.0 / qcomp=0.60 / qpmin=0 / qpmax=69 / qpstep=4 / cplxblur=20.0 / qblur=0.5 / vbv_maxrate=50000 / vbv_bufsize=62500 / nal_hrd=none / filler=0 / ip_ratio=1.40 / pb_ratio=1.30 / aq=2:0.80
Language : English
Default : Yes
Forced : No
Color range : Limited
Color primaries : BT.709
Transfer characteristics : BT.709
Matrix coefficients : BT.709
Audio #1
ID : 2
Format : AC-3
Format/Info : Audio Coding 3
Commercial name : Dolby Digital
Codec ID : A_AC3
Duration : 1 h 51 min
Bit rate mode : Constant
Bit rate : 448 kb/s
Channel(s) : 6 channels
Channel layout : L R C LFE Ls Rs
Sampling rate : 48.0 kHz
Frame rate : 31.250 FPS (1536 SPF)
Compression mode : Lossy
Stream size : 358 MiB (16%)
Title : MVO | Jaskier | RUS
Language : Russian
Service kind : Complete Main
Default : Yes
Forced : Yes
Audio #2
ID : 3
Format : AC-3
Format/Info : Audio Coding 3
Commercial name : Dolby Digital
Codec ID : A_AC3
Duration : 1 h 51 min
Bit rate mode : Constant
Bit rate : 448 kb/s
Channel(s) : 6 channels
Channel layout : L R C LFE Ls Rs
Sampling rate : 48.0 kHz
Frame rate : 31.250 FPS (1536 SPF)
Compression mode : Lossy
Stream size : 358 MiB (16%)
Title : Original | ENG
Language : English
Service kind : Complete Main
Default : Yes
Forced : No
Text #1
ID : 4
Format : UTF-8
Codec ID : S_TEXT/UTF8
Codec ID/Info : UTF-8 Plain Text
Duration : 1 h 45 min
Bit rate : 142 b/s
Count of elements : 1723
Stream size : 110 KiB (0%)
Title : Full
Language : Russian
Default : No
Forced : No
Text #2
ID : 5
Format : UTF-8
Codec ID : S_TEXT/UTF8
Codec ID/Info : UTF-8 Plain Text
Duration : 1 h 45 min
Bit rate : 78 b/s
Count of elements : 1720
Stream size : 60.2 KiB (0%)
Title : Full
Language : English
Default : No
Forced : No
Text #3
ID : 6
Format : UTF-8
Codec ID : S_TEXT/UTF8
Codec ID/Info : UTF-8 Plain Text
Duration : 1 h 45 min
Bit rate : 87 b/s
Count of elements : 1908
Stream size : 67.7 KiB (0%)
Title : SDH
Language : English
Default : No
Forced : No
Menu #1
00:00:00.000 : :Chapter 1
00:11:26.000 : :Chapter 2
00:19:31.000 : :Chapter 3
00:26:55.000 : :Chapter 4
00:33:43.000 : :Chapter 5
00:41:29.000 : :Chapter 6
00:50:29.000 : :Chapter 7
01:02:19.000 : :Chapter 8
01:13:31.000 : :Chapter 9
01:23:19.000 : :Chapter 10
01:34:35.000 : :Chapter 11
01:44:52.000 : :Chapter 12
Menu #2
00:00:00.000 : en:Chapter 1
00:11:26.000 : en:Chapter 2
00:19:31.000 : en:Chapter 3
00:26:55.000 : en:Chapter 4
00:33:43.000 : en:Chapter 5
00:41:29.000 : en:Chapter 6
00:50:29.000 : en:Chapter 7
01:02:19.000 : en:Chapter 8
01:13:31.000 : en:Chapter 9
01:23:19.000 : en:Chapter 10
01:34:35.000 : en:Chapter 11
01:44:52.000 : en:Chapter 12
Релиз от:
Автор релиза:
piratbit.org



Скачать Затерянный город через торрент http://i117.fastpic.org/big/2022/0512/88/f2faa54bf7e7cc9fff787bf849611588.jpg Скачать, смотреть онлайн Затерянный город бесплантно в хорошем качестве Описание: Лоретта Сейдж пишет популярные любовно-приключенческие романы. События в них непременно разворачиваются в экзотических местах, ... 9.8 10 14
Info! Золотая раздача, скачанное не засчитывается.
Торрент: Зарегистрирован [2022-05-12 17:23] · скачан: 430 раз
Статус: √ проверено
Размер: 2.24 GB
Как cкачать? Как скачать Затерянный город через торрент | UTorrent

28-11-2019 20:33  

Отключить всю рекламу на сайте

16-05-2022 14:48 Затерянный город Скачать торрент  

Реанимация Татума :)piratbit.org



18-05-2022 20:13 Затерянный город Скачать торрент  

stalevar83 писал(а):

Брэда замочили и сразу как-то не интересно стало смотреть

Отправлю на тебя жалобу, пожалуйpiratbit.org



    Дорогой пользователь! Огромная просьба, поблагодарите релизера, оцените раздачу и оставьте свои комментарий, если Вы скачали Затерянный город через торрент бесплатно!
    Комментировать посты могут только пользователи прошедшие не сложную регистрацию
    Показать сообщения:    

    Затерянный город через торрент
    Скачать бесплатно Затерянный город
    Затерянный город скачать торрент
    Затерянный город смотреть онлайн
    Cкачать фильм Затерянный город бесплатно
    Затерянный город скачать торрент в хорошем качестве
    Затерянный город смотреть онлайн бесплатно в хорошем качестве


    Вы можете начинать темы
    Вы можете отвечать на сообщения
    Вы не можете редактировать свои сообщения
    Вы не можете удалять свои сообщения
    Вы не можете голосовать в опросах
    Вы не можете прикреплять файлы к сообщениям
    Вы можете скачивать файлы