Всегда рабочее зеркало без VPN и Proxy просто перед .vidak.icu напиши любое слово или цифру, Пример http://jigb.vidak.icu

MVO

2 сезон

1 сезон

1

1 сезон

iTunes

2 сезон

13

1 сезон

Распродажа

pack

Рекомендуем

Пиратка

30

ВАЖНО

RePack

MK11

RePack

jed

RePack

fifa19

RePack

RDR2

RePack

NEED FOR SPEED™ PAYBACK

Кинопоиск HD

6 сезон

 Острые козырьки 6 сезон

Все сериалы

все сериалы на PB.wtf

RePack

FAR CRY 5

Anonymous, нам критически не хватает 5601 руб. на оплату серверов и переферии за Апрель, помоги нам пожалуйста, вся надежда только на тебя. В благодарность мы отключим тебе всю рекламу на сайте!

×
  
Magnet ссылка

Марлена / Marlene (Стефан Мюллер) [2020, Боевик, WEB-DLRip-AVC] MVO [OKKO] piratbit.org

Марлена через торрент piratbit.org

Раздают: 7 [ 112 KB/s ]
Размер: 1.36 GB | Добавлен: 7 д. назад | Торрент скачан:66 раз
Смотреть онлайн Марлена | Скачать    Ребята, помогите собрать деньги на оплату серверов!!!

13-05-2022 19:07 Марлена Скачать торрент  

Марлена
Marlene

Год выпуска: 2020
Страна: Австрия
Студия: Fly Oli, LOOM
Жанр: Боевик
Продолжительность: 01:35:26
Перевод: Профессиональный (многоголосый) | OKKO
Субтитры: Английские, немецкие

Режиссер: Стефан Мюллер

rating

В ролях: Франц Бишоф, Сируан Дарбанди, Томас Гейджер, София Грабнер, Дэвид Мисмер, Коринна Памм

Описание: Киллер Фрэнк получает новое задание от преступного синдиката — похитить девушку по имени Марлена. Герой устанавливает слежку за жертвой и вскоре влюбляется в нее. Впервые он готов нарушить свой кодекс и не выполнить задание, а спасти Марлену от преступников и верной смерти.

Качество: WEB-DLRip-AVC
Формат: MKV

Видео: MPEG-4 AVC, 1024x426 at 24.000 fps, x264@L4.1, ~1652 kbps
Аудио: 48 kHz, AC3 Dolby Digital, 3/2 (L, C, R, l, r) + LFE ch, ~384 Kbps
скриншот  скриншот  скриншот  скриншот  

frame I:834 Avg QP:15.36 size: 47520
x264 [info]: frame P:28414 Avg QP:17.52 size: 19099
x264 [info]: frame B:108189 Avg QP:19.48 size: 5550

General
Unique ID : 218868524626546777235576054524884572545 (0xA4A88B67616C62CB76A677C8DD6C5981)
Complete name : I:Marlene.2020.WEB-DLRip.x264.mkv
Format : Matroska
Format version : Version 4
File size : 1.36 GiB
Duration : 1 h 35 min
Overall bit rate : 2 038 kb/s
Encoded date : UTC 2022-05-13 18:53:24
Writing application : mkvmerge v63.0.0 ('Everything') 64-bit
Writing library : libebml v1.4.2 + libmatroska v1.6.4
Cover : Yes
Attachments : cover.jpg / cover 2.jpg

Video
ID : 1
Format : AVC
Format/Info : Advanced Video Codec
Format profile : High@L4.1
Format settings : CABAC / 11 Ref Frames
Format settings, CABAC : Yes
Format settings, Reference : 11 frames
Codec ID : V_MPEG4/ISO/AVC
Duration : 1 h 35 min
Bit rate : 1 652 kb/s
Width : 1 024 pixels
Height : 426 pixels
Display aspect ratio : 2.40:1
Frame rate mode : Constant
Frame rate : 24.000 FPS
Color space : YUV
Chroma subsampling : 4:2:0
Bit depth : 8 bits
Scan type : Progressive
Bits/(Pixel*Frame) : 0.158
Stream size : 1.10 GiB (81%)
Title : -=DoMiNo=-
Writing library : x264 core 164 r3094 bfc87b7
Encoding settings : cabac=1 / ref=11 / deblock=1:-2:-2 / analyse=0x3:0x133 / me=umh / subme=10 / psy=1 / psy_rd=1.07:0.20 / mixed_ref=1 / me_range=32 / chroma_me=1 / trellis=2 / 8x8dct=1 / cqm=0 / deadzone=21,11 / fast_pskip=0 / chroma_qp_offset=-3 / threads=17 / lookahead_threads=3 / sliced_threads=0 / nr=0 / decimate=0 / interlaced=0 / bluray_compat=0 / constrained_intra=0 / bframes=10 / b_pyramid=2 / b_adapt=2 / b_bias=0 / direct=3 / weightb=1 / open_gop=0 / weightp=2 / keyint=250 / keyint_min=24 / scenecut=40 / intra_refresh=0 / rc_lookahead=60 / rc=crf / mbtree=0 / crf=18.5 / qcomp=0.65 / qpmin=0 / qpmax=69 / qpstep=4 / vbv_maxrate=50000 / vbv_bufsize=62500 / crf_max=0.0 / nal_hrd=none / filler=0 / ip_ratio=1.35 / pb_ratio=1.25 / aq=2:1.00
Language : English
Default : Yes
Forced : No
Color range : Limited
Color primaries : BT.709
Transfer characteristics : BT.709
Matrix coefficients : BT.709

Audio
ID : 2
Format : AC-3
Format/Info : Audio Coding 3
Commercial name : Dolby Digital
Codec ID : A_AC3
Duration : 1 h 35 min
Bit rate mode : Constant
Bit rate : 384 kb/s
Channel(s) : 6 channels
Channel layout : L R C LFE Ls Rs
Sampling rate : 48.0 kHz
Frame rate : 31.250 FPS (1536 SPF)
Compression mode : Lossy
Stream size : 262 MiB (19%)
Title : MVO [OKKO]
Language : Russian
Service kind : Complete Main
Default : Yes
Forced : No

Text #1
ID : 3
Format : UTF-8
Codec ID : S_TEXT/UTF8
Codec ID/Info : UTF-8 Plain Text
Duration : 1 h 31 min
Bit rate : 22 b/s
Count of elements : 521
Stream size : 15.0 KiB (0%)
Title : Full
Language : English
Default : No
Forced : No

Text #2
ID : 4
Format : UTF-8
Codec ID : S_TEXT/UTF8
Codec ID/Info : UTF-8 Plain Text
Duration : 1 h 31 min
Bit rate : 27 b/s
Count of elements : 527
Stream size : 18.4 KiB (0%)
Title : Full
Language : German
Default : No
Forced : No

Menu
00:00:00.000 : :Глава 01
00:07:30.000 : :Глава 02
00:15:00.000 : :Глава 03
00:22:30.000 : :Глава 04
00:30:00.000 : :Глава 05
00:37:30.000 : :Глава 06
00:45:00.000 : :Глава 07
00:52:30.000 : :Глава 08
01:00:00.000 : :Глава 09
01:07:30.000 : :Глава 10
01:15:00.000 : :Глава 11
01:22:30.000 : :Глава 12
01:30:00.000 : :Глава 13

piratbit.org



Скачать Марлена через торрент https://i117.fastpic.org/big/2022/0513/e0/02942f767f38ec21904e91533203d8e0.jpg Скачать, смотреть онлайн Марлена бесплантно в хорошем качестве Описание: Киллер Фрэнк получает новое задание от преступного синдиката — похитить девушку по имени Марлена. Герой устанавливает слежку за ... 10 10 3
Торрент: Зарегистрирован [2022-05-13 19:07] · скачан: 66 раз
Статус: √ проверено
Размер: 1.36 GB
Как cкачать? Как скачать Марлена через торрент | UTorrent

% Раздел Тема Автор DL S | L
Фильмы (WEB-DL 720p, 1080p) [ 6.05 GB ] Марлена / Marlene [2020 WEB-DL 1080p] MVO [OKKO] bober100 Скачать
9 | 0

28-11-2019 20:33  

Отключить всю рекламу на сайте

    Дорогой пользователь! Огромная просьба, поблагодарите релизера, оцените раздачу и оставьте свои комментарий, если Вы скачали Марлена через торрент бесплатно!
    Комментировать посты могут только пользователи прошедшие не сложную регистрацию
    Показать сообщения:    

    Марлена через торрент
    Скачать бесплатно Марлена
    Марлена скачать торрент
    Марлена смотреть онлайн
    Cкачать фильм Марлена бесплатно
    Марлена скачать торрент в хорошем качестве
    Марлена смотреть онлайн бесплатно в хорошем качестве


    Вы можете начинать темы
    Вы можете отвечать на сообщения
    Вы не можете редактировать свои сообщения
    Вы не можете удалять свои сообщения
    Вы не можете голосовать в опросах
    Вы не можете прикреплять файлы к сообщениям
    Вы можете скачивать файлы