Всегда рабочее зеркало без VPN и Proxy просто перед .vidak.icu напиши любое слово или цифру, Пример http://5o3k.vidak.icu

MVO

2 сезон

2 сезон

1

1 сезон

iTunes

2 сезон

13

1 сезон

Распродажа

pack

Рекомендуем

Пиратка

30

ВАЖНО

RePack

MK11

RePack

jed

RePack

fifa19

RePack

RDR2

RePack

NEED FOR SPEED™ PAYBACK

Кинопоиск HD

6 сезон

 Острые козырьки 6 сезон

Все сериалы

все сериалы на PB.wtf

RePack

FAR CRY 5

Anonymous, нам критически не хватает 5601 руб. на оплату серверов и переферии за Апрель, помоги нам пожалуйста, вся надежда только на тебя. В благодарность мы отключим тебе всю рекламу на сайте!

×
  
Magnet ссылка

Варяг / The Northman (Роберт Эггерс) [2022, Фэнтези, боевик, триллер, драма, приключения, история, WEB-DLRip-AVC] MVO [NewComers] от ExKinoRay piratbit.org

Варяг через торрент piratbit.org

Раздают: 54 [ 2 MB/s ] Качают: 2 [ 0 KB/s ]
Размер: 2.7 GB | Добавлен: 4 д. назад | Торрент скачан:484 раза
Смотреть онлайн Варяг | Скачать    Ребята, помогите собрать деньги на оплату серверов!!!

14-05-2022 04:36 Варяг Скачать торрент  


Варяг / The Northman
Информация о фильме:
Название: Варяг
Оригинальное название: The Northman
Год выхода: 2022
Жанр: Фэнтези, боевик, триллер, драма, приключения, история
Режиссер: Роберт Эггерс
В ролях: Александр Скарсгард, Николь Кидман, Клас Банг, Итэн Хоук, Аня Тейлор-Джой, Густав Линд, Эллиотт Роуз, Уиллем Дефо, Фил Мартин, Эльдар Скар и другие.

Описание: Фильм основан на саге о Амлете из древнескандинавской хроники, записанной Саксоном Грамматиком. Сюжет рассказывает о том, как викинг Фьолнир убивает своего брата, конунга Хорвендила, и берёт в жёны его супругу Гудрун. Амлет, сын Хорвендила, скрывается и клянётся отомстить убийце отца. Когда Амлет становится старше, он объединяется со славянской ведьмой Ольгой, похищенной викингами, и стремится вернуться домой, чтобы убить Фьолнира.



Страна: США
Студия: Focus Features, Perfect World (Beijing) Pictures Co., Regency Television, Square Peg, Universal Pictures
Продолжительность: 02:17:18
Перевод: Профессиональный (многоголосый, закадровый) - NewComers



Информация о файле:
Кодек: AVC
Формат: MKV
Качество: WEB-DLRip-AVC
Видео: MPEG-4 AVC, 1024x512, 23.976 fps, 1980 kbps
Аудио RU: AC3, 6 ch, 48 kHz, 384 kbps
Аудио EN: AC3, 6 ch, 48 kHz, 448 kbps
Субтитры: русские (на надписи)



x264 info: frame I:994 Avg QP:14.42 size: 63210
x264 info: frame P:46527 Avg QP:18.39 size: 20431
x264 info: frame B:149989 Avg QP:20.31 size: 6829
General
Unique ID : 160837432296637591211754238113026149148 (0x790029A6F58CCCA926B218251AC80B1C)
Complete name : D:uTorrentРипы wolf1245The Northman.2022.MVO.NewComers.x264.WEB-DLRip-AVC.[wolf1245.ExKinoRay].mkv
Format : Matroska
Format version : Version 4
File size : 2.70 GiB
Duration : 2 h 17 min
Overall bit rate : 2 812 kb/s
Movie name : The Northman.2022.MVO.NewComers.x264.WEB-DLRip-AVC.[wolf1245.ExKinoRay]
Encoded date : UTC 2022-05-14 04:19:41
Writing application : mkvmerge v67.0.0 ('Under Stars') 64-bit
Writing library : libebml v1.4.2 + libmatroska v1.6.4
Video
ID : 1
Format : AVC
Format/Info : Advanced Video Codec
Format profile : High@L4.1
Format settings : CABAC / 10 Ref Frames
Format settings, CABAC : Yes
Format settings, Reference frames : 10 frames
Codec ID : V_MPEG4/ISO/AVC
Duration : 2 h 17 min
Bit rate : 1 980 kb/s
Width : 1 024 pixels
Height : 512 pixels
Display aspect ratio : 2.000
Frame rate mode : Constant
Frame rate : 23.976 (24000/1001) FPS
Color space : YUV
Chroma subsampling : 4:2:0
Bit depth : 8 bits
Scan type : Progressive
Bits/(Pixel*Frame) : 0.158
Stream size : 1.90 GiB (70%)
Title : -=[wolf1245.ExKinoRay]=-
Writing library : x264 core 163 r3060 5db6aa6
Encoding settings : cabac=1 / ref=10 / deblock=1:-2:-2 / analyse=0x3:0x133 / me=umh / subme=11 / psy=1 / psy_rd=1.05:0.15 / mixed_ref=1 / me_range=32 / chroma_me=1 / trellis=2 / 8x8dct=1 / cqm=0 / deadzone=22,11 / fast_pskip=1 / chroma_qp_offset=-3 / threads=10 / lookahead_threads=2 / sliced_threads=0 / nr=0 / decimate=0 / interlaced=0 / bluray_compat=0 / constrained_intra=0 / bframes=10 / b_pyramid=2 / b_adapt=2 / b_bias=0 / direct=3 / weightb=1 / open_gop=0 / weightp=2 / keyint=240 / keyint_min=24 / scenecut=40 / intra_refresh=0 / rc_lookahead=60 / rc=2pass / mbtree=0 / bitrate=1980 / ratetol=1.0 / qcomp=0.60 / qpmin=0 / qpmax=69 / qpstep=4 / cplxblur=20.0 / qblur=0.5 / vbv_maxrate=50000 / vbv_bufsize=62500 / nal_hrd=none / filler=0 / ip_ratio=1.40 / pb_ratio=1.30 / aq=3:0.80
Language : Multiple languages
Default : Yes
Forced : No
Color range : Limited
Color primaries : BT.709
Transfer characteristics : BT.709
Matrix coefficients : BT.709
Audio #1
ID : 2
Format : AC-3
Format/Info : Audio Coding 3
Commercial name : Dolby Digital
Codec ID : A_AC3
Duration : 2 h 17 min
Bit rate mode : Constant
Bit rate : 384 kb/s
Channel(s) : 6 channels
Channel layout : L R C LFE Ls Rs
Sampling rate : 48.0 kHz
Frame rate : 31.250 FPS (1536 SPF)
Compression mode : Lossy
Stream size : 377 MiB (14%)
Title : MVO | NewComers | RUS
Language : Russian
Service kind : Complete Main
Default : Yes
Forced : No
Audio #2
ID : 3
Format : AC-3
Format/Info : Audio Coding 3
Commercial name : Dolby Digital
Codec ID : A_AC3
Duration : 2 h 17 min
Bit rate mode : Constant
Bit rate : 448 kb/s
Channel(s) : 6 channels
Channel layout : L R C LFE Ls Rs
Sampling rate : 48.0 kHz
Frame rate : 31.250 FPS (1536 SPF)
Compression mode : Lossy
Stream size : 439 MiB (16%)
Title : Original | ENG
Language : English
Service kind : Complete Main
Default : Yes
Forced : No
Text #1
ID : 4
Format : UTF-8
Codec ID : S_TEXT/UTF8
Codec ID/Info : UTF-8 Plain Text
Duration : 2 h 8 min
Bit rate : 50 b/s
Count of elements : 985
Stream size : 47.2 KiB (0%)
Title : Русские (Full) - Cool Story Blog
Language : Russian
Default : No
Forced : No
Text #2
ID : 5
Format : ASS
Codec ID : S_TEXT/ASS
Codec ID/Info : Advanced Sub Station Alpha
Duration : 2 h 0 min
Bit rate : 0 b/s
Count of elements : 8
Compression mode : Lossless
Stream size : 356 Bytes (0%)
Title : Русские (Forced) - NewComers
Language : Russian
Default : Yes
Forced : No
Text #3
ID : 6
Format : UTF-8
Codec ID : S_TEXT/UTF8
Codec ID/Info : UTF-8 Plain Text
Duration : 2 h 16 min
Bit rate : 25 b/s
Count of elements : 1095
Stream size : 25.8 KiB (0%)
Title : English (Full)
Language : English
Default : No
Forced : No
Text #4
ID : 7
Format : UTF-8
Codec ID : S_TEXT/UTF8
Codec ID/Info : UTF-8 Plain Text
Duration : 1 h 39 min
Bit rate : 1 b/s
Count of elements : 33
Stream size : 1.10 KiB (0%)
Title : English (Forced)
Language : English
Default : No
Forced : No
Text #5
ID : 8
Format : UTF-8
Codec ID : S_TEXT/UTF8
Codec ID/Info : UTF-8 Plain Text
Duration : 2 h 16 min
Bit rate : 40 b/s
Count of elements : 1700
Stream size : 40.0 KiB (0%)
Title : English (SDH)
Language : English
Default : No
Forced : No
Релиз от:
Автор релиза:
piratbit.org



Скачать Варяг через торрент http://i117.fastpic.org/big/2022/0514/90/36c3c1e43b149874bd20d33114f1d190.jpg Скачать, смотреть онлайн Варяг бесплантно в хорошем качестве Описание: Фильм основан на саге о Амлете из древнескандинавской хроники, записанной Саксоном Грамматиком. Сюжет рассказывает о том, как ... 9.2 10 17
Info! Золотая раздача, скачанное не засчитывается.
Торрент: Зарегистрирован [2022-05-14 04:36] · скачан: 484 раз
Статус: √ проверено
Размер: 2.7 GB
Как cкачать? Как скачать Варяг через торрент | UTorrent

28-11-2019 20:33  

Отключить всю рекламу на сайте

14-05-2022 18:18 Варяг Скачать торрент  

ну хоть что то .надо глянуть
треть фильма осилил и вырубилpiratbit.org





Последний раз редактировалось: pirotehnik771 (2022-05-15 18:47), всего редактировалось 1 раз

14-05-2022 18:56 Варяг Скачать торрент  

The Northman.
Варяг.
Коряга.piratbit.org



15-05-2022 15:09 Варяг Скачать торрент  

Зеленый рыцарь, Последняя дуэль, Варяг... Для очень ценителей. С чего такой рейтинг?! От пластикового фэйса Николь Кидман? Не зашло... Но за раздачу спасибо :)piratbit.org



16-05-2022 11:37 Варяг Скачать торрент  

а мне понравился. фильм с незамысловатой моралью. знаю некоторых, тоже шары налиты яростью, прут напролом как будто им шаманы на ухо истину шепчут, несмотря ни на какие последствия. правда, исключительно в состоянии алкогольного угара) потом в обезьянниках у доблестных стканчикошугающихся сидят по 15 суток, а некоторые даже и того хуже... вобщем, с оценкой согласен, если не ожидать от фильма аттракциона. ну и не придираться особо)
зы. не знаю, может повлияло на мнение то, что я в тотал вар компанию за славян счас играю. как раз плюс минус та эпоха) да ну, вряд ли сильно повлияло)) и эти викинги как топорники в игре, когда прут, ни пехота ни кавалерия не остановит, все похеру. ну ладно, немного повлияло на интерес к просмотру, да))piratbit.org



    Дорогой пользователь! Огромная просьба, поблагодарите релизера, оцените раздачу и оставьте свои комментарий, если Вы скачали Варяг через торрент бесплатно!
    Комментировать посты могут только пользователи прошедшие не сложную регистрацию
    Показать сообщения:    

    Варяг через торрент
    Скачать бесплатно Варяг
    Варяг скачать торрент
    Варяг смотреть онлайн
    Cкачать фильм Варяг бесплатно
    Варяг скачать торрент в хорошем качестве
    Варяг смотреть онлайн бесплатно в хорошем качестве


    Вы можете начинать темы
    Вы можете отвечать на сообщения
    Вы не можете редактировать свои сообщения
    Вы не можете удалять свои сообщения
    Вы не можете голосовать в опросах
    Вы не можете прикреплять файлы к сообщениям
    Вы можете скачивать файлы