Доктор Стрэндж

Лицензия

Добыча

Дубляж

Дом дракона

1 сезон

Тор

Дубляж

В эфире

Дубляж

Там, где раки поют

MVO

Властелин колец

1 сезон

GLOBAL

pack

Рекомендуем

30

Пиратка

ВАЖНО

ВАЖНО

Ghostwire

Пиратка

jed

RePack

nioh2

RePack

RDR2

RePack

NEED FOR SPEED™ PAYBACK

RePack

скачать торрент

Кинопоиск HD

Острые козырьки 6 сезон

6 сезон

FAR CRY 6

RePack

скачать торрент

Лицензия

скачать торрент

MVO

1

1 сезон

скачать торрент

1 сезон

скачать торрент

Лицензия

  

Тёмные очки / Occhiali neri / Dark Glasses (Дарио Ардженто) [2022, триллер, детектив, WEB-DLRip-AVC] DVO [Yuka_chan & datynet] от ExKinoRay

Тёмные очки через торрент piratbit.org

Раздают: 3 [ 0 KB/s ]
Размер: 1.24 GB | Добавлен: 6 мес. назад | Торрент скачан:199 раз
Смотреть онлайн | Скачать   

17-05-2022 19:16 Тёмные очки Скачать торрент  


Тёмные очки / Occhiali neri / Dark Glasses
Информация Описание:
Название: Тёмные очки
Оригинальное название: Occhiali neri / Dark Glasses
Год выхода: 2022
Жанр: триллер, детектив
Режиссер: Дарио Ардженто
В ролях: Иления Пасторелли, Азия Ардженто, Андреа Герпелли, Марио Пиррелло, Мария Розария Руссо, Дженнаро Иаккарино, Андреа Чжан, Иван Аловицио, Фабрицио Элеутери, Гульельмо Фавилла

Описание: В день полного солнечного затмения Рим превращается в арену жестоких убийств - таинственный маньяк выслеживает и убивает юных эскортниц. Его очередной добычей едва не становится красавица Диана. Спасаясь от преследования, девушка попадает в автокатастрофу, в результате которой теряет зрение. Пережив потрясение, она пытается приспособиться к жизни во тьме. Но серийный убийца следует за ней по пятам, заставляя беспомощную Диану пребывать в состоянии непрерывного ужаса…



Страна: Италия, Франция
Студия: Urania Pictures S.r.l.Getaway Films, Rai Cinema
Продолжительность: 01:25:35
Перевод: Любительский (двухголосый, закадровый) - Yuka_chan & datynet



Информация о файле:
Кодек: AVC
Формат: MKV
Качество: WEB-DLRip-AVC
Видео: MPEG-4 AVC, 1024x424, 24.000 fps, 1890 kbps
Аудио RU: AC3, 2 ch, 48 kHz, 192 kbps



x264 info: frame I:851 Avg QP:10.74 size: 53708
x264 info: frame P:27627 Avg QP:12.37 size: 21284
x264 info: frame B:94761 Avg QP:13.86 size: 5983
General
Unique ID : 105056636509451149195253218471120049942 (0x4F092C16056892A2A1C225519CF99716)
Complete name : D:uTorrentРипы wolf1245Occhiali neri.Dark Glasses.2022.DVO.Yuka chan.datynet.x264.WEB-DLRip-AVC.[wolf1245.ExKinoRay].mkv
Format : Matroska
Format version : Version 4
File size : 1.24 GiB
Duration : 1 h 25 min
Overall bit rate : 2 073 kb/s
Movie name : Occhiali neri.Dark Glasses.2022.DVO.Yuka chan.datynet.x264.WEB-DLRip-AVC.[wolf1245.ExKinoRay]
Encoded date : UTC 2022-05-17 19:02:05
Writing application : mkvmerge v67.0.0 ('Under Stars') 64-bit
Writing library : libebml v1.4.2 + libmatroska v1.6.4
Video
ID : 1
Format : AVC
Format/Info : Advanced Video Codec
Format profile : High@L4.1
Format settings : CABAC / 12 Ref Frames
Format settings, CABAC : Yes
Format settings, Reference frames : 12 frames
Codec ID : V_MPEG4/ISO/AVC
Duration : 1 h 25 min
Bit rate : 1 890 kb/s
Width : 1 024 pixels
Height : 424 pixels
Display aspect ratio : 2.40:1
Frame rate mode : Constant
Frame rate : 24.000 FPS
Color space : YUV
Chroma subsampling : 4:2:0
Bit depth : 8 bits
Scan type : Progressive
Bits/(Pixel*Frame) : 0.181
Stream size : 1.12 GiB (91%)
Title : -=[wolf1245.ExKinoRay]=-
Writing library : x264 core 163 r3060 5db6aa6
Encoding settings : cabac=1 / ref=12 / deblock=1:-2:-2 / analyse=0x3:0x133 / me=umh / subme=10 / psy=1 / psy_rd=1.00:0.15 / mixed_ref=1 / me_range=32 / chroma_me=1 / trellis=2 / 8x8dct=1 / cqm=0 / deadzone=22,11 / fast_pskip=1 / chroma_qp_offset=-3 / threads=10 / lookahead_threads=2 / sliced_threads=0 / nr=0 / decimate=0 / interlaced=0 / bluray_compat=0 / constrained_intra=0 / bframes=10 / b_pyramid=2 / b_adapt=2 / b_bias=0 / direct=3 / weightb=1 / open_gop=0 / weightp=2 / keyint=240 / keyint_min=24 / scenecut=40 / intra_refresh=0 / rc_lookahead=60 / rc=2pass / mbtree=0 / bitrate=1890 / ratetol=1.0 / qcomp=0.60 / qpmin=0 / qpmax=69 / qpstep=4 / cplxblur=20.0 / qblur=0.5 / vbv_maxrate=50000 / vbv_bufsize=62500 / nal_hrd=none / filler=0 / ip_ratio=1.40 / pb_ratio=1.30 / aq=1:1.00
Language : Italian
Default : Yes
Forced : No
Audio
ID : 2
Format : AC-3
Format/Info : Audio Coding 3
Commercial name : Dolby Digital
Codec ID : A_AC3
Duration : 1 h 25 min
Bit rate mode : Constant
Bit rate : 192 kb/s
Channel(s) : 2 channels
Channel layout : L R
Sampling rate : 48.0 kHz
Frame rate : 31.250 FPS (1536 SPF)
Compression mode : Lossy
Stream size : 118 MiB (9%)
Title : DVO | Yuka_chan & datynet | RUS
Language : Russian
Service kind : Complete Main
Default : Yes
Forced : No
Релиз от:
Автор релиза:



Скачать Тёмные очки через торрент http://i117.fastpic.org/big/2022/0517/42/28fa8f30573b970a5dfe695151715b42.jpg Скачать, смотреть онлайн Тёмные очки бесплантно в хорошем качестве Описание: Название: Тёмные очки Оригинальное название: Occhiali neri / Dark Glasses Год выхода: 2022 Жанр: триллер, детектив Режиссер: ... 10 10 4
Торрент: Зарегистрирован [2022-05-17 19:16] · скачан: 199 раз
Статус: T временная
Размер: 1.24 GB
Как cкачать? Как скачать Тёмные очки через торрент | UTorrent

% Раздел Тема Автор DL S | L
Фильмы [HD 720p, 1080p] (Хороший звук DUB, MVO) [ 5.13 GB ] Тёмные очки / Occhiali neri / Dark Glasses | DUB | 720p bober100 Скачать
1 | 0
Фильмы (Blu-ray, BD-Remux, HDDVD) [ 18.12 GB ] Тёмные очки / Occhiali neri / Dark Glasses | DUB | BD Remux 1080p bober100 Скачать
1 | 0
Фильмы [HD 720p, 1080p] (Хороший звук DUB, MVO) [ 8.2 GB ] Тёмные очки / Occhiali neri / Dark Glasses | DUB | 1080p bober100 Скачать
1 | 1

28-11-2019 20:33  


Отключить вcю реклaмy на сайте, в т.ч. и в плеере онлайн просмотра!

17-05-2022 19:25 Тёмные очки Скачать торрент  

Топик был перенесен из форума Фильмы 2022 [DVDrip, WEB-DLRip, HDrip] (Дубляж, MVO) в форум Фильмы 2022 (Звук TS, Cam, VO, DVO)


bober100



17-07-2022 23:53 Тёмные очки Скачать торрент  

эт красавица Диана на первом или втором скрине? ))))



    Дорогой пользователь! Огромная просьба, поблагодарите релизера, оцените раздачу и оставьте свои комментарий, если Вы скачали Тёмные очки через торрент бесплатно!!
    Комментировать посты могут только пользователи прошедшие не сложную регистрацию
    Показать сообщения:    


    Тёмные очки через торрент
    Скачать бесплатно Тёмные очки
    Тёмные очки скачать торрент
    Тёмные очки смотреть онлайн
    Cкачать фильм Тёмные очки бесплатно
    Тёмные очки скачать торрент в хорошем качестве
    Тёмные очки смотреть онлайн бесплатно в хорошем качестве
    Вы можете начинать темы
    Вы можете отвечать на сообщения
    Вы не можете редактировать свои сообщения
    Вы не можете удалять свои сообщения
    Вы не можете голосовать в опросах
    Вы не можете прикреплять файлы к сообщениям
    Вы можете скачивать файлы
    Тёмные очки / Occhiali neri / Dark Glasses [2022, триллер, детектив, WEB-DLRip-AVC] DVO [Yuka_chan & datynet] от ExKinoRay смотреть онлайн, скачать торрент picoco.icu