Всегда рабочее зеркало без VPN и Proxy просто перед .vidak.icu напиши любое слово или цифру, Пример http://aout.vidak.icu

MVO

Лицензия

1 сезон

1

1 сезон

iTunes

1 сезон

13

1 сезон

Deluxe

pack

Рекомендуем

Пиратка

30

ВАЖНО

RePack

MK11

RePack

jed

RePack

fifa19

RePack

RDR2

RePack

NEED FOR SPEED™ PAYBACK

Кинопоиск HD

6 сезон

 Острые козырьки 6 сезон

Все сериалы

все сериалы на PB.wtf

RePack

FAR CRY 5

Anonymous, нам критически не хватает 2100 руб. на оплату серверов и переферии за МАЙ, помоги нам пожалуйста, вся надежда только на тебя. В благодарность мы отключим тебе всю рекламу на сайте!

×
  
Magnet ссылка

Флешбэк / Memory (Мартин Кэмпбелл) [2022, Боевик, триллер, WEB-DL 1080p] DUB [Велес] +MVO [TVShows] piratbit.org

Флешбэк через торрент piratbit.org

Раздают: 25 [ 3 MB/s ] Качают: 3 [ 993 KB/s ]
Размер: 6.96 GB | Добавлен: 3 д. назад | Торрент скачан:126 раз
Смотреть онлайн Флешбэк | Скачать    Ребята, помогите собрать деньги на оплату серверов!!!

21-05-2022 17:29 Флешбэк Скачать торрент  

Флешбэк
Memory

Год выпуска: 2022
Страна: США
Выпущено: Arthur Sarkissian Productions, Black Bear Pictures, Saville Productions, Welle Entertainment
Жанр: Боевик, триллер
Продолжительность: 01:54:04
Перевод(ы):
#1: Дублированный | Велес
#2: Профессиональный многоголосый | TVShows
Субтитры: Английские

Режиссер: Мартин Кэмпбелл

rating

В ролях: Лиам Нисон, Гай Пирс, Тадж Атвал, Арольд Торрес, Рэй Фиарон, Моника Беллуччи, Миа Санчес, Даниэль Де Бург, Натали Андерсон, Ребекка Калдер, Скот Уильямс, Дуглас Рао, Атанас Сребрев, Ли Бордман, Стелла Стокер

Описание: Не выполнив заказ серьезной криминальной организации, киллер с болезнью Альцгеймера понимает, что теперь охота открыта на него самого. «Флешбэк» — ремейк бельгийского триллера 2003 года «Синдром Альцгеймера».

Качество: WEB-DL 1080p
Формат: MKV

Видео: MPEG-4 AVC, 1920x800, 7522 Kbit/s, 23.976 fps
Аудио #01: 48 kHz, AC3, 5.1, 384 Kbps | Дублированный | Велес | RUS |
Аудио #02: 48 kHz, AC3, 2.0, 192 Kbps | Профессиональный многоголосый | TVShows | RUS |
Аудио #03: 48 kHz, E-AC3, 5.1, 640 Kbps | Оригинал | ENG |
скриншот  скриншот  скриншот  скриншот  скриншот  

General
Unique ID : 202158612194329428148812947332263980028 (0x9816551D057F62F5C7B1545053022BFC)
Complete name : D:Video1Memory.2022.WEB-DL.1080p.seleZen.mkv
Format : Matroska
Format version : Version 4
File size : 6.96 GiB
Duration : 1 h 54 min
Overall bit rate : 8 740 kb/s
Movie name : Memory 2022 from seleZen
Encoded date : UTC 2022-06-22 00:23:43
Writing application : mkvmerge v59.0.0 ('Shining Star') 64-bit
Writing library : libebml v1.4.2 + libmatroska v1.6.4

Video
ID : 1
Format : AVC
Format/Info : Advanced Video Codec
Format profile : High@L4
Format settings : CABAC / 4 Ref Frames
Format settings, CABAC : Yes
Format settings, Reference : 4 frames
Codec ID : V_MPEG4/ISO/AVC
Duration : 1 h 54 min
Bit rate mode : Constant
Bit rate : 7 522 kb/s
Nominal bit rate : 10 000 kb/s
Width : 1 920 pixels
Height : 800 pixels
Display aspect ratio : 2.40:1
Frame rate mode : Constant
Frame rate : 23.976 (24000/1001) FPS
Color space : YUV
Chroma subsampling : 4:2:0
Bit depth : 8 bits
Scan type : Progressive
Bits/(Pixel*Frame) : 0.204
Stream size : 5.99 GiB (86%)
Language : English
Default : Yes
Forced : No
Color range : Limited
Color primaries : BT.709
Transfer characteristics : BT.709
Matrix coefficients : BT.709

Audio #1
ID : 2
Format : AC-3
Format/Info : Audio Coding 3
Commercial name : Dolby Digital
Codec ID : A_AC3
Duration : 1 h 54 min
Bit rate mode : Constant
Bit rate : 384 kb/s
Channel(s) : 6 channels
Channel layout : L R C LFE Ls Rs
Sampling rate : 48.0 kHz
Frame rate : 31.250 FPS (1536 SPF)
Compression mode : Lossy
Stream size : 313 MiB (4%)
Title : Dub [Veles]
Language : Russian
Service kind : Complete Main
Default : Yes
Forced : Yes

Audio #2
ID : 3
Format : AC-3
Format/Info : Audio Coding 3
Commercial name : Dolby Digital
Codec ID : A_AC3
Duration : 1 h 54 min
Bit rate mode : Constant
Bit rate : 192 kb/s
Channel(s) : 2 channels
Channel layout : L R
Sampling rate : 48.0 kHz
Frame rate : 31.250 FPS (1536 SPF)
Compression mode : Lossy
Stream size : 157 MiB (2%)
Title : MVO [TVShows]
Language : Russian
Service kind : Complete Main
Default : No
Forced : No

Audio #3
ID : 4
Format : E-AC-3
Format/Info : Enhanced AC-3
Commercial name : Dolby Digital Plus
Codec ID : A_EAC3
Duration : 1 h 54 min
Bit rate mode : Constant
Bit rate : 640 kb/s
Channel(s) : 6 channels
Channel layout : L R C LFE Ls Rs
Sampling rate : 48.0 kHz
Frame rate : 31.250 FPS (1536 SPF)
Compression mode : Lossy
Stream size : 522 MiB (7%)
Title : Original
Language : English
Service kind : Complete Main
Default : No
Forced : No

Text #1
ID : 5
Format : UTF-8
Codec ID : S_TEXT/UTF8
Codec ID/Info : UTF-8 Plain Text
Duration : 1 h 41 min
Bit rate : 51 b/s
Count of elements : 1307
Stream size : 37.9 KiB (0%)
Title : Full
Language : English
Default : No
Forced : No

Text #2
ID : 6
Format : UTF-8
Codec ID : S_TEXT/UTF8
Codec ID/Info : UTF-8 Plain Text
Duration : 1 h 52 min
Bit rate : 56 b/s
Count of elements : 1800
Stream size : 46.4 KiB (0%)
Title : SDH
Language : English
Default : No
Forced : No

piratbit.org



Скачать Флешбэк через торрент https://i120.fastpic.org/big/2022/0622/79/617d3d3f5f9467588be37fb70724ad79.jpg Скачать, смотреть онлайн Флешбэк бесплантно в хорошем качестве Описание: Не выполнив заказ серьезной криминальной организации, киллер с болезнью Альцгеймера понимает, что теперь охота открыта на него ... 9.4 10 25
Торрент: Зарегистрирован [2022-06-22 03:01] · скачан: 126 раз
Статус: √ проверено
Размер: 6.96 GB
Как cкачать? Как скачать Флешбэк через торрент | UTorrent

% Раздел Тема Автор DL S | L
Фильмы (WEB-DL 720p, 1080p) [ 3.02 GB ] Флешбэк / Memory [2022 WEB-DL 720p] DUB [Велес] +MVO [TVShows] bober100 Скачать
14 | 0
Фильмы 2022 [DVDrip, WEB-DLRip, HDrip] (DUB, MVO) [ 1.46 GB ] Флешбэк / Memory [2022 WEB-DLRip] DUB [Велес] bober100 Скачать
24 | 1
Ultra HD (UHD: 2K, 4K, 8K) — видео сверхвысокой чёткости [ 12.59 GB ] Флешбэк / Memory [2022 UHD WEB-DL-HEVC 2160p] DUB [Велес] +MVO [TVShows] bober100 Скачать
11 | 0
T Фильмы 2022 (Звук TS, Cam, VO, DVO) [ 2.18 GB ] Флешбэк / Memory [2022 WEB-DLRip-AVC] killermax2013 Скачать
6 | 0
T Фильмы 2022 (Звук TS, Cam, VO, DVO) [ 2.22 GB ] Флешбэк / Memory [2022 WEB-DLRip-AVC] DVO [Pazl Voice] от ExKinoRay Lithuania Скачать
578 | 13

28-11-2019 20:33  

Отключить всю рекламу на сайте

    Дорогой пользователь! Огромная просьба, поблагодарите релизера, оцените раздачу и оставьте свои комментарий, если Вы скачали Флешбэк через торрент бесплатно!
    Комментировать посты могут только пользователи прошедшие не сложную регистрацию
    Показать сообщения:    

    Флешбэк через торрент
    Скачать бесплатно Флешбэк
    Флешбэк скачать торрент
    Флешбэк смотреть онлайн
    Cкачать фильм Флешбэк бесплатно
    Флешбэк скачать торрент в хорошем качестве
    Флешбэк смотреть онлайн бесплатно в хорошем качестве


    Вы не можете начинать темы
    Вы не можете отвечать на сообщения
    Вы не можете редактировать свои сообщения
    Вы не можете удалять свои сообщения
    Вы не можете голосовать в опросах
    Вы не можете прикреплять файлы к сообщениям
    Вы можете скачивать файлы