Всегда рабочее зеркало без VPN и Proxy просто перед .vidak.icu напиши любое слово или цифру, Пример http://m3br.vidak.icu

MVO

Лицензия

1 сезон

1

1 сезон

iTunes

1 сезон

13

1 сезон

Deluxe

pack

Рекомендуем

Пиратка

30

ВАЖНО

RePack

MK11

RePack

jed

RePack

fifa19

RePack

RDR2

RePack

NEED FOR SPEED™ PAYBACK

Кинопоиск HD

6 сезон

 Острые козырьки 6 сезон

Все сериалы

все сериалы на PB.wtf

RePack

FAR CRY 5

Anonymous, нам критически не хватает 2100 руб. на оплату серверов и переферии за МАЙ, помоги нам пожалуйста, вся надежда только на тебя. В благодарность мы отключим тебе всю рекламу на сайте!

×
  
Magnet ссылка

Чип и Дейл спешат на помощь / Chip 'n Dale: Rescue Rangers (Акива Шаффер) [2022, Мультфильм, комедия, детектив, приключения, семейный, WEB-DL 1080p] VO [Сыендук] piratbit.org

Чип и Дейл спешат на помощь через торрент piratbit.org

Раздают: 18 [ 0 KB/s ]
Размер: 5.3 GB | Добавлен: 1 мес. 3 д. назад | Торрент скачан:367 раз
Смотреть онлайн Чип и Дейл спешат на помощь | Скачать    Ребята, помогите собрать деньги на оплату серверов!!!

22-05-2022 14:04 Чип и Дейл спешат на помощь Скачать торрент  

Чип и Дейл спешат на помощь
Chip 'n Dale: Rescue Rangers

Год выпуска: 2022
Страна: США
Выпущено: Mandeville Films, Walt Disney Pictures, Big Flick Rentals, The Moving Picture Company, Technicolor Limited
Жанр: Мультфильм, комедия, детектив, приключения, семейный
Продолжительность: 01:36:45
Перевод: Профессиональный одноголосый | Сыендук
Субтитры: Русские (Full), английские (Full, SDH)

Режиссер: Акива Шаффер

rating

В ролях: Энди Сэмберг, Джон Малэйни, КиКи Лэйн, Уилл Арнетт, Эрик Бана, Флула Борг, Дэннис Хэйсбёрт, Кигэн-Майкл Ки, Тресс МакНилл, Тим Робинсон

Описание: «Чип и Дейл спешат на помощь» — известное шоу, в котором когда-то снимались бурундуки и их друзья. Прошло 30 лет. Чип стал страховым агентом, а Дейл зарабатывает, рассказывая о своих прежних успехах на разных фестивалях. Но когда пропадает их друг, бурундуки снова объединяются, чтобы спасти товарища.

Качество: WEB-DL 1080p
Формат: MKV

Видео: MPEG-4 AVC, 6873 Кбит/с, 1920x1080
Аудио 1: Русский, AC-3, 48 kHz, 2 ch, 192 kbps - Сыендук
Аудио 2: English, E-AC-3, 48 kHz, 6 ch, 768 kbps - Original
скриншот  скриншот  скриншот  скриншот  

General
Unique ID : 121064456143774662164902662525790527869 (0x5B142A876B2EAE02D017425A2D9D217D)
Complete name : C:\Users\Wild_Cat\Desktop\Chip 'n' Dale Rescue Rangers by Wild_Cat.mkv\Chip 'n' Dale Rescue Rangers (2022) - Full HD by Wild_Cat.mkv
Format : Matroska
Format version : Version 4
File size : 5.30 GiB
Duration : 1 h 36 min
Overall bit rate mode : Variable
Overall bit rate : 7 836 kb/s
Movie name : Chip 'n' Dale Rescue Rangers (2022) - Full HD by Wild_Cat
Encoded date : UTC 2022-05-23 15:41:19
Writing application : mkvmerge v68.0.0 ('The Curtain') 64-bit
Writing library : libebml v1.4.2 + libmatroska v1.6.4
Cover : Yes
Attachments : cover.jpg / cover_land.jpg / small_cover.jpg / small_cover_land.jpg

Video
ID : 1
Format : AVC
Format/Info : Advanced Video Codec
Format profile : High@L4
Format settings : CABAC / 4 Ref Frames
Format settings, CABAC : Yes
Format settings, Reference : 4 frames
Codec ID : V_MPEG4/ISO/AVC
Duration : 1 h 36 min
Bit rate mode : Variable
Bit rate : 6 873 kb/s
Maximum bit rate : 12.7 Mb/s
Width : 1 920 pixels
Height : 1 080 pixels
Display aspect ratio : 16:9
Frame rate mode : Constant
Frame rate : 24.000 FPS
Color space : YUV
Chroma subsampling : 4:2:0
Bit depth : 8 bits
Scan type : Progressive
Bits/(Pixel*Frame) : 0.138
Stream size : 4.65 GiB (88%)
Title : by Wild_Cat
Language : Multiple languages
Default : Yes
Forced : No
Color range : Limited
Color primaries : BT.709
Transfer characteristics : BT.709
Matrix coefficients : BT.709

Audio #1
ID : 2
Format : AC-3
Format/Info : Audio Coding 3
Commercial name : Dolby Digital
Codec ID : A_AC3
Duration : 1 h 36 min
Bit rate mode : Constant
Bit rate : 192 kb/s
Channel(s) : 2 channels
Channel layout : L R
Sampling rate : 48.0 kHz
Frame rate : 31.250 FPS (1536 SPF)
Compression mode : Lossy
Stream size : 133 MiB (2%)
Title : SVO - Сыендук
Language : Russian
Service kind : Complete Main
Default : Yes
Forced : No

Audio #2
ID : 3
Format : E-AC-3 JOC
Format/Info : Enhanced AC-3 with Joint Object Coding
Commercial name : Dolby Digital Plus with Dolby Atmos
Codec ID : A_EAC3
Duration : 1 h 36 min
Bit rate mode : Constant
Bit rate : 768 kb/s
Channel(s) : 6 channels
Channel layout : L R C LFE Ls Rs
Sampling rate : 48.0 kHz
Frame rate : 31.250 FPS (1536 SPF)
Compression mode : Lossy
Stream size : 532 MiB (10%)
Title : Original
Language : English
Service kind : Complete Main
Default : No
Forced : No
Complexity index : 16
Number of dynamic objects : 15
Bed channel count : 1 channel
Bed channel configuration : LFE

Text #1
ID : 4
Format : UTF-8
Codec ID : S_TEXT/UTF8
Codec ID/Info : UTF-8 Plain Text
Duration : 1 h 29 min
Bit rate : 154 b/s
Count of elements : 1449
Stream size : 101 KiB (0%)
Title : Русские (Full) - Cool Story Blog
Language : Russian
Default : No
Forced : No

Text #2
ID : 5
Format : UTF-8
Codec ID : S_TEXT/UTF8
Codec ID/Info : UTF-8 Plain Text
Duration : 1 h 29 min
Bit rate : 138 b/s
Count of elements : 1557
Stream size : 90.5 KiB (0%)
Title : Русские (Full) - Сыендук
Language : Russian
Default : No
Forced : No

Text #3
ID : 6
Format : ASS
Codec ID : S_TEXT/ASS
Codec ID/Info : Advanced Sub Station Alpha
Duration : 1 h 29 min
Bit rate : 185 b/s
Count of elements : 1439
Compression mode : Lossless
Stream size : 121 KiB (0%)
Title : Русские (Full) - Mystery World Team
Language : Russian
Default : No
Forced : No

Text #4
ID : 7
Format : UTF-8
Codec ID : S_TEXT/UTF8
Codec ID/Info : UTF-8 Plain Text
Duration : 1 h 28 min
Bit rate : 90 b/s
Count of elements : 1490
Stream size : 59.2 KiB (0%)
Title : English (Full)
Language : English
Default : No
Forced : No

Text #5
ID : 8
Format : UTF-8
Codec ID : S_TEXT/UTF8
Codec ID/Info : UTF-8 Plain Text
Duration : 1 h 35 min
Bit rate : 95 b/s
Count of elements : 1688
Stream size : 67.0 KiB (0%)
Title : English (SDH)
Language : English
Default : No
Forced : No

piratbit.org



Скачать Чип и Дейл спешат на помощь через торрент https://i120.fastpic.org/big/2022/0525/0a/a37ecf662bf4b89670584e0fecb45f0a.jpg Скачать, смотреть онлайн Чип и Дейл спешат на помощь бесплантно в хорошем качестве Описание: «Чип и Дейл спешат на помощь» — известное шоу, в котором когда-то снимались бурундуки и их друзья. Прошло 30 лет. Чип стал ... 8.7 10 23
Торрент: Зарегистрирован [2022-05-23 17:07] · скачан: 367 раз
Статус: √ проверено
Размер: 5.3 GB
Как cкачать? Как скачать Чип и Дейл спешат на помощь через торрент | UTorrent



Последний раз редактировалось: bober100 (2022-05-25 01:50), всего редактировалось 3 раз(а)

28-11-2019 20:33  

Отключить всю рекламу на сайте

22-05-2022 14:13 Чип и Дейл спешат на помощь Скачать торрент  

Не, ну 5гб качать, не, спс.
Подождем "полторашечку".piratbit.org



22-05-2022 14:21 Чип и Дейл спешат на помощь Скачать торрент  

А Рокки стал чернокожим транс-геем в инвалидной коляске.piratbit.org



22-05-2022 15:43 Чип и Дейл спешат на помощь Скачать торрент  

гайку драла муха Вжик и у них 35 детей. дальше можете не смотретьpiratbit.org



22-05-2022 15:46 Чип и Дейл спешат на помощь Скачать торрент  

Чип и Дейл поженились, а Толстопуз сменил пол и стал бодипозитивной моделью женских сумочек .piratbit.org



22-05-2022 17:53 Чип и Дейл спешат на помощь Скачать торрент  

Серебров писал(а):

А Рокки стал чернокожим транс-геем в инвалидной коляске.

piratbit.org



24-05-2022 14:14 Чип и Дейл спешат на помощь Скачать торрент  

DeeMan писал(а):

Не, ну 5гб качать, не, спс.
Подождем "полторашечку".

а что 5 гб это так много?! P.s. а вот озвучку многоголосую подождемpiratbit.org



24-05-2022 17:45 Чип и Дейл спешат на помощь Скачать торрент  

Не знаю как вам люди, но в последнее время так много слабых перезапусков мультсериалов (или игр) в полнометражные фильмы, что этот фильм очень даже неплох! Да, я знаю про от(с)ношения Гаечки с Вжиком (не одобряю) но тут этот момент идет мимоходом, что даже не обращаешь внимания. В общем и целом этот фильм (или мультфильм, кому как) мы смотрели с кампанией, и дружно сошлись во мнении что он похож на "Кто подставил кролика Роджера?", смотреть будет приятно и детям и взрослым. 7,5 из 10!piratbit.org



24-05-2022 20:10 Чип и Дейл спешат на помощь Скачать торрент  

kartman737 писал(а):

Не знаю как вам люди, но в последнее время так много слабых перезапусков мультсериалов (или игр) в полнометражные фильмы, что этот фильм очень даже неплох! Да, я знаю про от(с)ношения Гаечки с Вжиком (не одобряю) но тут этот момент идет мимоходом, что даже не обращаешь внимания. В общем и целом этот фильм (или мультфильм, кому как) мы смотрели с кампанией, и дружно сошлись во мнении что он похож на "Кто подставил кролика Роджера?", смотреть будет приятно и детям и взрослым. 7,5 из 10!

написано так, как будто вы не знаете когда запятую нужно поставить)) Не знаю как вам люди, но вот я животное еще то, не против и гаечку.... или же если вы писали с обращением к людям - не знаю как вам, (да, обращение к людям, тут запятая) люди,( и тут тоже запятая, потому что обращение закончилось ) но... и так далее... а смысл в том что обращение, можно вообще убрать из предложения... ведь если написать - не знаю как вам...( вам = люди ) вы уже обратились к людям... ну или к животным...
не обращайте внимания, и не обижайтесь. ну перепил и даю тут уроки правописания... а хули есчо рабыть...piratbit.org



    Дорогой пользователь! Огромная просьба, поблагодарите релизера, оцените раздачу и оставьте свои комментарий, если Вы скачали Чип и Дейл спешат на помощь через торрент бесплатно!
    Комментировать посты могут только пользователи прошедшие не сложную регистрацию
    Показать сообщения:    

    Чип и Дейл спешат на помощь через торрент
    Скачать бесплатно Чип и Дейл спешат на помощь
    Чип и Дейл спешат на помощь скачать торрент
    Чип и Дейл спешат на помощь смотреть онлайн
    Cкачать фильм Чип и Дейл спешат на помощь бесплатно
    Чип и Дейл спешат на помощь скачать торрент в хорошем качестве
    Чип и Дейл спешат на помощь смотреть онлайн бесплатно в хорошем качестве


    Вы не можете начинать темы
    Вы не можете отвечать на сообщения
    Вы не можете редактировать свои сообщения
    Вы не можете удалять свои сообщения
    Вы не можете голосовать в опросах
    Вы не можете прикреплять файлы к сообщениям
    Вы можете скачивать файлы