Всегда рабочее зеркало без VPN и Proxy просто перед .vidak.icu напиши любое слово или цифру, Пример http://w9we.vidak.icu

MVO

Лицензия

1 сезон

1

1 сезон

iTunes

1 сезон

13

1 сезон

Deluxe

pack

Рекомендуем

Пиратка

30

ВАЖНО

RePack

MK11

RePack

jed

RePack

fifa19

RePack

RDR2

RePack

NEED FOR SPEED™ PAYBACK

Кинопоиск HD

6 сезон

 Острые козырьки 6 сезон

Все сериалы

все сериалы на PB.wtf

RePack

FAR CRY 5

Anonymous, нам критически не хватает 2100 руб. на оплату серверов и переферии за МАЙ, помоги нам пожалуйста, вся надежда только на тебя. В благодарность мы отключим тебе всю рекламу на сайте!

×
  
Magnet ссылка

Флешбэк / Memory (Мартин Кэмпбелл) [2022, Боевик, Триллер, WEB-DLRip-AVC] DVO [Pazl Voice] от ExKinoRay piratbit.org

Флешбэк через торрент piratbit.org

Раздают: 703 [ 15 MB/s ] Качают: 3 [ 0 KB/s ]
Размер: 2.22 GB | Добавлен: 1 мес. 4 д. назад | Торрент скачан:269 раз
Смотреть онлайн Флешбэк | Скачать    Ребята, помогите собрать деньги на оплату серверов!!!

22-05-2022 14:05 Флешбэк Скачать торрент  


Флешбэк / Memory
Информация о фильме:
Название: Флешбэк
Оригинальное название: Memory
Год выхода: 2022
Жанр: Боевик, Триллер
Режиссер: Мартин Кэмпбелл
В ролях: Лиам Нисон, Гай Пирс, Тадж Атвал, Арольд Торрес, Рэй Фиарон, Моника Беллуччи, Миа Санчес, Даниэль Де Бург, Натали Андерсон, Ребекка Калдер, Скот Уильямс, Дуглас Рао, Атанас Сребрев, Ли Бордман, Стелла Стокер

Описание: Алекс Льюис, профессиональный киллер с репутацией, в какой-то момент пошел против ветра, и теперь вынужден отбиваться и от ФБР, и от криминального босса. Все потому, что убийца отказался нарушить свой моральный кодекс.



Страна: США
Студия: Black Bear Pictures, Saville Productions, Arthur Sarkissian Productions, Welle Entertainment
Продолжительность: 01:54:04
Перевод: Любительский (двухголосый закадровый) - Pazl Voice



Информация о файле:
Кодек: AVC
Формат: MKV
Качество: WEB-DLRip-AVC
Видео: MPEG-4 AVC, 1024x426, 23.976 fps, 1890 kb/s
Аудио RU: AC3, 6 ch, 48 kHz, 448 kbps
Аудио EN: AC3, 6 ch, 48 kHz, 448 kbps
Субтитры: английские + (хардсаб на испанскую речь)



x264 info: frame I:1506 Avg QP:13.64 size: 53875
x264 info: frame P:37475 Avg QP:14.56 size: 20978
x264 info: frame B:125124 Avg QP:16.14 size: 5576
General
Unique ID : 135324906689179603488202499912918506863 (0x65CEA1063C84E58D76648B56050E1D6F)
Complete name : D:uTorrentРипы wolf1245Memory.2022.DVO.Pazl.x264.WEB-DLRip-AVC.[wolf1245.ExKinoRay].mkv
Format : Matroska
Format version : Version 4
File size : 2.22 GiB
Duration : 1 h 54 min
Overall bit rate : 2 788 kb/s
Movie name : Memory.2022.DVO.Pazl.x264.WEB-DLRip-AVC.[wolf1245.ExKinoRay]
Encoded date : UTC 2022-05-22 13:48:21
Writing application : mkvmerge v67.0.0 ('Under Stars') 64-bit
Writing library : libebml v1.4.2 + libmatroska v1.6.4
Video
ID : 1
Format : AVC
Format/Info : Advanced Video Codec
Format profile : High@L4.1
Format settings : CABAC / 10 Ref Frames
Format settings, CABAC : Yes
Format settings, Reference frames : 10 frames
Codec ID : V_MPEG4/ISO/AVC
Duration : 1 h 54 min
Bit rate : 1 890 kb/s
Width : 1 024 pixels
Height : 426 pixels
Display aspect ratio : 2.40:1
Frame rate mode : Constant
Frame rate : 23.976 (24000/1001) FPS
Color space : YUV
Chroma subsampling : 4:2:0
Bit depth : 8 bits
Scan type : Progressive
Bits/(Pixel*Frame) : 0.181
Stream size : 1.51 GiB (68%)
Title : -=[wolf1245.ExKinoRay]=-
Writing library : x264 core 163 r3060 5db6aa6
Encoding settings : cabac=1 / ref=10 / deblock=1:-2:-2 / analyse=0x3:0x133 / me=umh / subme=11 / psy=1 / psy_rd=1.00:0.15 / mixed_ref=1 / me_range=32 / chroma_me=1 / trellis=2 / 8x8dct=1 / cqm=0 / deadzone=22,11 / fast_pskip=1 / chroma_qp_offset=-3 / threads=10 / lookahead_threads=2 / sliced_threads=0 / nr=0 / decimate=0 / interlaced=0 / bluray_compat=0 / constrained_intra=0 / bframes=10 / b_pyramid=2 / b_adapt=2 / b_bias=0 / direct=3 / weightb=1 / open_gop=0 / weightp=2 / keyint=240 / keyint_min=24 / scenecut=40 / intra_refresh=0 / rc_lookahead=60 / rc=2pass / mbtree=0 / bitrate=1890 / ratetol=1.0 / qcomp=0.60 / qpmin=0 / qpmax=69 / qpstep=4 / cplxblur=20.0 / qblur=0.5 / vbv_maxrate=50000 / vbv_bufsize=62500 / nal_hrd=none / filler=0 / ip_ratio=1.40 / pb_ratio=1.30 / aq=3:1.00
Language : English
Default : Yes
Forced : No
Color range : Limited
Color primaries : BT.709
Transfer characteristics : BT.709
Matrix coefficients : BT.709
Audio #1
ID : 2
Format : AC-3
Format/Info : Audio Coding 3
Commercial name : Dolby Digital
Codec ID : A_AC3
Duration : 1 h 54 min
Bit rate mode : Constant
Bit rate : 448 kb/s
Channel(s) : 6 channels
Channel layout : L R C LFE Ls Rs
Sampling rate : 48.0 kHz
Frame rate : 31.250 FPS (1536 SPF)
Compression mode : Lossy
Stream size : 366 MiB (16%)
Title : DVO | Pazl Voice | RUS
Language : Russian
Service kind : Complete Main
Default : Yes
Forced : No
Audio #2
ID : 3
Format : AC-3
Format/Info : Audio Coding 3
Commercial name : Dolby Digital
Codec ID : A_AC3
Duration : 1 h 54 min
Bit rate mode : Constant
Bit rate : 448 kb/s
Channel(s) : 6 channels
Channel layout : L R C LFE Ls Rs
Sampling rate : 48.0 kHz
Frame rate : 31.250 FPS (1536 SPF)
Compression mode : Lossy
Stream size : 366 MiB (16%)
Title : Original | ENG
Language : English
Service kind : Complete Main
Default : Yes
Forced : No
Text
ID : 4
Format : UTF-8
Codec ID : S_TEXT/UTF8
Codec ID/Info : UTF-8 Plain Text
Duration : 1 h 41 min
Bit rate : 51 b/s
Count of elements : 1307
Stream size : 37.9 KiB (0%)
Language : English
Default : No
Forced : No
Релиз от:
Автор релиза:
piratbit.org



Скачать Флешбэк через торрент http://i117.fastpic.org/big/2022/0522/96/ab2885d14f8922bb0da73649b48ff096.jpg Скачать, смотреть онлайн Флешбэк бесплантно в хорошем качестве Описание: Алекс Льюис, киллер с репутацией, в какой-то момент пошел против ветра, и теперь вынужден отбиваться и от ФБР, ... 9.9 10 12
Торрент: Зарегистрирован [2022-05-22 14:05] · скачан: 269 раз
Статус: T временная
Размер: 2.22 GB
Как cкачать? Как скачать Флешбэк через торрент | UTorrent

28-11-2019 20:33  

Отключить всю рекламу на сайте

    Дорогой пользователь! Огромная просьба, поблагодарите релизера, оцените раздачу и оставьте свои комментарий, если Вы скачали Флешбэк через торрент бесплатно!
    Комментировать посты могут только пользователи прошедшие не сложную регистрацию
    Показать сообщения:    

    Флешбэк через торрент
    Скачать бесплатно Флешбэк
    Флешбэк скачать торрент
    Флешбэк смотреть онлайн
    Cкачать фильм Флешбэк бесплатно
    Флешбэк скачать торрент в хорошем качестве
    Флешбэк смотреть онлайн бесплатно в хорошем качестве


    Вы можете начинать темы
    Вы можете отвечать на сообщения
    Вы не можете редактировать свои сообщения
    Вы не можете удалять свои сообщения
    Вы не можете голосовать в опросах
    Вы не можете прикреплять файлы к сообщениям
    Вы можете скачивать файлы