Всегда рабочее зеркало без VPN и Proxy просто перед .vidak.icu напиши любое слово или цифру, Пример http://1alq.vidak.icu

MVO

Лицензия

1 сезон

1

1 сезон

iTunes

1 сезон

13

1 сезон

Deluxe

pack

Рекомендуем

Пиратка

30

ВАЖНО

RePack

MK11

RePack

jed

RePack

fifa19

RePack

RDR2

RePack

NEED FOR SPEED™ PAYBACK

Кинопоиск HD

6 сезон

 Острые козырьки 6 сезон

Все сериалы

все сериалы на PB.wtf

RePack

FAR CRY 5

Anonymous, нам критически не хватает 2100 руб. на оплату серверов и переферии за МАЙ, помоги нам пожалуйста, вся надежда только на тебя. В благодарность мы отключим тебе всю рекламу на сайте!

×
  
Magnet ссылка

Шутки в сторону 2 / Loin du périph / The Takedown (Луи́ Летерье́) [2022, Боевик, комедия, криминал, WEB-DLRip-AVC] MVO [Pazl Voice] от ExKinoRay piratbit.org

Шутки в сторону 2 через торрент piratbit.org

Раздают: 16 [ 566 KB/s ]
Размер: 2.36 GB | Добавлен: 1 мес. 2 д. назад | Торрент скачан:281 раз
Смотреть онлайн Шутки в сторону 2 | Скачать    Ребята, помогите собрать деньги на оплату серверов!!!

24-05-2022 17:54 Шутки в сторону 2 Скачать торрент  


Шутки в сторону 2 / Loin du périph / The Takedown
Информация о фильме:
Название: Шутки в сторону 2
Оригинальное название: Loin du périph / The Takedown
Год выхода: 2022
Жанр: Боевик, комедия, криминал
Режиссер: Луи́ Летерье́
В ролях: Омар Си, Лоран Лафитт, Изиа Ижлен, Дмитрий Сторож, Стефан Пезера, Джо Престиа, Флави Пеан, Катрин Шоб-Абкариан, Давид Бан, Лиа Довернь, Сильвия Берже, Джимо, Бертран Юскла, Элоди Эсме, Леопольд Бара

Описание: Усман Диаките и Франсуа Мари — два капитана с очень разными стилями, опытом и карьерой. Эти двое снова воссоединяются для нового расследования, которое проходит по всей Франции. То, что казалось простой сделкой с наркотиками, оказывается масштабным уголовным делом, окутанным опасностью и неожиданной комедией.



Страна: Франция
Студия: Mandarin Films
Продолжительность: 02:01:20
Перевод: Любительский (двухголосый, закадровый) - Pazl Voice



Информация о файле:
Кодек: AVC
Формат: MKV
Качество: WEB-DLRip-AVC
Видео: MPEG-4 AVC, 1024x428, 24.000 fps, 1890 kbps
Аудио RU: AC3, 6 ch, 48 kHz, 448 kbps
Аудио EN: AC3, 6 ch, 48 kHz, 448 kbps
Субтитры: Русские, английские



x264 info: frame I:2167 Avg QP:17.02 size: 44714
x264 info: frame P:48308 Avg QP:19.94 size: 19065
x264 info: frame B:124258 Avg QP:21.43 size: 5349
General
Unique ID : 163287598281171522100713761771736298775 (0x7AD80C2976942B2580FA3C5EC2E87517)
Complete name : D:uTorrentРипы wolf1245Loin du périph.The Takedown.2022.DVO.Pazl.x264.WEB-DLRip-AVC.[wolf1245.ExKinoRay].mkv
Format : Matroska
Format version : Version 4
File size : 2.36 GiB
Duration : 2 h 1 min
Overall bit rate : 2 787 kb/s
Movie name : Loin du périph.The Takedown.2022.DVO.Pazl.x264.WEB-DLRip-AVC.[wolf1245.ExKinoRay]
Encoded date : UTC 2022-05-24 17:39:12
Writing application : mkvmerge v68.0.0 ('The Curtain') 64-bit
Writing library : libebml v1.4.2 + libmatroska v1.6.4
Video
ID : 1
Format : AVC
Format/Info : Advanced Video Codec
Format profile : High@L4.1
Format settings : CABAC / 12 Ref Frames
Format settings, CABAC : Yes
Format settings, Reference frames : 12 frames
Codec ID : V_MPEG4/ISO/AVC
Duration : 2 h 1 min
Bit rate : 1 890 kb/s
Width : 1 024 pixels
Height : 428 pixels
Display aspect ratio : 2.40:1
Frame rate mode : Constant
Frame rate : 24.000 FPS
Color space : YUV
Chroma subsampling : 4:2:0
Bit depth : 8 bits
Scan type : Progressive
Bits/(Pixel*Frame) : 0.180
Stream size : 1.60 GiB (68%)
Title : -=[wolf1245.ExKinoRay]=-
Writing library : x264 core 163 r3060 5db6aa6
Encoding settings : cabac=1 / ref=12 / deblock=1:-3:-2 / analyse=0x3:0x133 / me=umh / subme=11 / psy=1 / psy_rd=0.00:0.15 / mixed_ref=1 / me_range=32 / chroma_me=1 / trellis=2 / 8x8dct=1 / cqm=0 / deadzone=22,11 / fast_pskip=1 / chroma_qp_offset=-1 / threads=10 / lookahead_threads=2 / sliced_threads=0 / nr=0 / decimate=0 / interlaced=0 / bluray_compat=0 / constrained_intra=0 / bframes=10 / b_pyramid=2 / b_adapt=2 / b_bias=0 / direct=3 / weightb=1 / open_gop=0 / weightp=2 / keyint=240 / keyint_min=24 / scenecut=40 / intra_refresh=0 / rc_lookahead=60 / rc=2pass / mbtree=0 / bitrate=1890 / ratetol=1.0 / qcomp=0.60 / qpmin=0 / qpmax=69 / qpstep=4 / cplxblur=20.0 / qblur=0.5 / vbv_maxrate=50000 / vbv_bufsize=62500 / nal_hrd=none / filler=0 / ip_ratio=1.40 / pb_ratio=1.30 / aq=3:0.80
Language : English
Default : Yes
Forced : No
Audio #1
ID : 2
Format : AC-3
Format/Info : Audio Coding 3
Commercial name : Dolby Digital
Codec ID : A_AC3
Duration : 2 h 1 min
Bit rate mode : Constant
Bit rate : 448 kb/s
Channel(s) : 6 channels
Channel layout : L R C LFE Ls Rs
Sampling rate : 48.0 kHz
Frame rate : 31.250 FPS (1536 SPF)
Compression mode : Lossy
Stream size : 389 MiB (16%)
Title : DVO | Pazl Voice | RUS
Language : Russian
Service kind : Complete Main
Default : Yes
Forced : No
Audio #2
ID : 3
Format : AC-3
Format/Info : Audio Coding 3
Commercial name : Dolby Digital
Codec ID : A_AC3
Duration : 2 h 1 min
Bit rate mode : Constant
Bit rate : 448 kb/s
Channel(s) : 6 channels
Channel layout : L R C LFE Ls Rs
Sampling rate : 48.0 kHz
Frame rate : 31.250 FPS (1536 SPF)
Compression mode : Lossy
Stream size : 389 MiB (16%)
Title : Original | ENG
Language : English
Service kind : Complete Main
Default : Yes
Forced : No
Text #1
ID : 4
Format : UTF-8
Codec ID : S_TEXT/UTF8
Codec ID/Info : UTF-8 Plain Text
Duration : 1 h 59 min
Bit rate : 94 b/s
Count of elements : 1842
Stream size : 83.0 KiB (0%)
Language : Russian
Default : No
Forced : No
Text #2
ID : 5
Format : UTF-8
Codec ID : S_TEXT/UTF8
Codec ID/Info : UTF-8 Plain Text
Duration : 1 h 54 min
Bit rate : 78 b/s
Count of elements : 1978
Stream size : 65.9 KiB (0%)
Language : English
Default : No
Forced : No
Релиз от:
Автор релиза:
piratbit.org



Скачать Шутки в сторону 2 через торрент http://i120.fastpic.org/big/2022/0524/be/60446d3b3a0af408742b9f925e4be7be.jpg Скачать, смотреть онлайн Шутки в сторону 2 бесплантно в хорошем качестве Описание: Усман Диаките и Франсуа Мари — два капитана с очень разными стилями, опытом и карьерой. Эти двое снова воссоединяются для ... 9.8 10 10
Info! Золотая раздача, скачанное не засчитывается.
Торрент: Зарегистрирован [2022-05-24 17:54] · скачан: 281 раз
Статус: √ проверено
Размер: 2.36 GB
Как cкачать? Как скачать Шутки в сторону 2 через торрент | UTorrent

28-11-2019 20:33  

Отключить всю рекламу на сайте

24-05-2022 20:24 Шутки в сторону 2 Скачать торрент  

хороший фильм, понравился 5 к твоиpiratbit.org



    Дорогой пользователь! Огромная просьба, поблагодарите релизера, оцените раздачу и оставьте свои комментарий, если Вы скачали Шутки в сторону 2 через торрент бесплатно!
    Комментировать посты могут только пользователи прошедшие не сложную регистрацию
    Показать сообщения:    

    Шутки в сторону 2 через торрент
    Скачать бесплатно Шутки в сторону 2
    Шутки в сторону 2 скачать торрент
    Шутки в сторону 2 смотреть онлайн
    Cкачать фильм Шутки в сторону 2 бесплатно
    Шутки в сторону 2 скачать торрент в хорошем качестве
    Шутки в сторону 2 смотреть онлайн бесплатно в хорошем качестве


    Вы можете начинать темы
    Вы можете отвечать на сообщения
    Вы не можете редактировать свои сообщения
    Вы не можете удалять свои сообщения
    Вы не можете голосовать в опросах
    Вы не можете прикреплять файлы к сообщениям
    Вы можете скачивать файлы