Доктор Стрэндж

Лицензия

Добыча

Дубляж

Дом дракона

1 сезон

Тор

Дубляж

В эфире

Дубляж

Там, где раки поют

MVO

Властелин колец

1 сезон

GLOBAL

pack

Рекомендуем

30

Пиратка

ВАЖНО

ВАЖНО

Ghostwire

Пиратка

jed

RePack

nioh2

RePack

RDR2

RePack

NEED FOR SPEED™ PAYBACK

RePack

скачать торрент

Кинопоиск HD

Острые козырьки 6 сезон

6 сезон

FAR CRY 6

RePack

скачать торрент

Лицензия

скачать торрент

MVO

1

1 сезон

скачать торрент

1 сезон

скачать торрент

Лицензия

  

Флешбэк / Memory (Мартин Кэмпбелл) [2022, боевик, триллер, WEB-DLRip-AVC] [Дубляж]

Флешбэк через торрент piratbit.org

Раздают: 2 [ 0 KB/s ]
Размер: 2.18 GB | Добавлен: 6 мес. назад | Торрент скачан:328 раз
Смотреть онлайн | Скачать   

24-05-2022 19:10 Флешбэк Скачать торрент  

Флешбэк / Memory «Память киллера — тяжелая ноша»
Год выпуска: 2022
Страна: США
Жанр: боевик, триллер
Продолжительность: 01:53:58
Перевод: Профессиональный (дублированный)(Микс звука экранки с оригиналом)
Субтитры: украинские, английские

Режиссер: Мартин Кэмпбелл / Martin Campbell

В ролях: Лиам Нисон, Моника Беллуччи, Рэй Стивенсон, Гай Пирс, Тадж Атвал, Луис Мэндилор, Рэй Фиарон, Стелла Стокер, Даниэль Де Бург, Ли Бордман

Описание: Алекс Льюис, профессиональный киллер с репутацией, в какой-то момент пошел против ветра, и теперь вынужден отбиваться и от ФБР, и от криминального босса. Все потому, что убийца отказался нарушить свой моральный кодекс.

rating

Качество видео: WEB-DLRip-AVC
Формат видео: MKV
Видео: MPEG-4 AVC, 1152x480 (2.40:1), 23.976 fps, ~ 2070 kbps avg
Аудио 1: 48 kHz, AC3 Dolby Digital, 2.0 ch, ~ 224 kbps .Rus
Аудио 2: 48 kHz, AC3 Dolby Digital, 5.1 ch, ~ 448 kbps .Eng

Формат субтитров: softsub (SRT)
Доп. информация:
Дорожка с переводом получена микшированием звука экранки с оригинальной дорогой.
General
Unique ID : 324728396807385839161969376179807944181 (0xF44C6A10E7300E07FA76016240717DF5)
Complete name : Memory.2022.WEB-DLRip.Дубляж.Mix.mkv
Format : Matroska
Format version : Version 4 / Version 2
File size : 2.18 GiB
Duration : 1 h 53 min
Overall bit rate : 2 744 kb/s
Encoded date : UTC 2022-05-22 13:22:58
Writing application : mkvmerge v64.0.0 ('Willows') 64-bit
Writing library : libebml v1.4.2 + libmatroska v1.6.4

Video
ID : 1
Format : AVC
Format/Info : Advanced Video Codec
Format profile : High@L4.1
Format settings : CABAC / 16 Ref Frames
Format settings, CABAC : Yes
Format settings, ReFrames : 16 frames
Codec ID : V_MPEG4/ISO/AVC
Duration : 1 h 53 min
Bit rate : 2 070 kb/s
Width : 1 152 pixels
Height : 480 pixels
Display aspect ratio : 2.40:1
Frame rate mode : Constant
Frame rate : 23.976 (24000/1001) FPS
Color space : YUV
Chroma subsampling : 4:2:0
Bit depth : 8 bits
Scan type : Progressive
Bits/(Pixel*Frame) : 0.156
Stream size : 1.65 GiB (75%)
Writing library : x264 core 148 r2638 7599210
Encoding settings : cabac=1 / ref=16 / deblock=1:0:0 / analyse=0x3:0x113 / me=umh / subme=10 / psy=1 / psy_rd=1.00:0.00 / mixed_ref=1 / me_range=32 /
chroma_me=1 / trellis=2 / 8x8dct=1 / cqm=0 / deadzone=21,11 / fast_pskip=1 / chroma_qp_offset=-2 / threads=12 / lookahead_threads=3 / sliced_threads=0 / nr=0 / decimate=1 /
interlaced=0 / bluray_compat=0 / constrained_intra=0 / bframes=16 / b_pyramid=2 / b_adapt=2 / b_bias=0 / direct=3 / weightb=1 / open_gop=0 / weightp=2 / keyint=250 /
keyint_min=23 / scenecut=40 / intra_refresh=0 / rc_lookahead=60 / rc=2pass / mbtree=1 / bitrate=2070 / ratetol=1.0 / qcomp=0.60 / qpmin=0 / qpmax=69 / qpstep=4 /
cplxblur=20.0 / qblur=0.5 / ip_ratio=1.40 / aq=1:1.00
Default : Yes
Forced : No
Color range : Limited
Color primaries : BT.709
Transfer characteristics : BT.709
Matrix coefficients : BT.709

Audio #1
ID : 2
Format : AC-3
Format/Info : Audio Coding 3
Codec ID : A_AC3
Duration : 1 h 53 min
Bit rate mode : Constant
Bit rate : 224 kb/s
Channel(s) : 2 channels
Channel positions : Front: L R
Sampling rate : 48.0 kHz
Frame rate : 31.250 FPS (1536 SPF)
Bit depth : 16 bits
Compression mode : Lossy
Stream size : 183 MiB (8%)
Title : Rus. Дубляж. Mix. AC3. 2.0. 224. kbps.
Language : Russian
Service kind : Complete Main
Default : Yes
Forced : No

Audio #2
ID : 3
Format : AC-3
Format/Info : Audio Coding 3
Codec ID : A_AC3
Duration : 1 h 53 min
Bit rate mode : Constant
Bit rate : 448 kb/s
Channel(s) : 6 channels
Channel positions : Front: L C R, Side: L R, LFE
Sampling rate : 48.0 kHz
Frame rate : 31.250 FPS (1536 SPF)
Bit depth : 16 bits
Compression mode : Lossy
Stream size : 365 MiB (16%)
Title : Eng. AC3. 5.1. 448 kbps.
Language : English
Service kind : Complete Main
Default : No
Forced : No

Text #1
ID : 4
Format : UTF-8
Codec ID : S_TEXT/UTF8
Codec ID/Info : UTF-8 Plain Text
Duration : 1 h 41 min
Bit rate : 51 b/s
Count of elements : 1307
Stream size : 37.9 KiB (0%)
Title : Eng.
Language : English
Default : No
Forced : No

Text #2
ID : 5
Format : UTF-8
Codec ID : S_TEXT/UTF8
Codec ID/Info : UTF-8 Plain Text
Duration : 1 h 41 min
Bit rate : 94 b/s
Count of elements : 1296
Stream size : 70.3 KiB (0%)
Title : Ukr.
Language : Ukrainian
Default : No
Forced : No



Скачать Флешбэк через торрент https://i120.fastpic.org/big/2022/0524/86/b43c4970fc46416e607f55991220df86.jpg Скачать, смотреть онлайн Флешбэк бесплантно в хорошем качестве Описание: Алекс Льюис, киллер с репутацией, в какой-то момент пошел против ветра, и теперь вынужден отбиваться и от ФБР, и ... 9.8 10 11
Info! Золотая раздача, скачанное не засчитывается.
Торрент: Зарегистрирован [2022-05-24 19:10] · скачан: 328 раз
Статус: T временная
Размер: 2.18 GB
Как cкачать? Как скачать Флешбэк через торрент | UTorrent

% Раздел Тема Автор DL S | L
Ultra HD (UHD: 2K, 4K, 8K) [ 43.31 GB ] Флешбэк / Memory | TVShows | 2160p bober100 Скачать
1 | 1
Фильмы 2022 [DVDrip, WEB-DLRip, HDrip] (DUB, MVO) [ 2.13 GB ] Флешбэк / Memory | TVShows | BDRip bober100 Скачать
3 | 0
Наши фильмы (Blu-ray, BD-Remux, HDDVD) [ 29.02 GB ] Флешбэк / Memory | TVShows | BD Remux 1080p bober100 Скачать
1 | 0
Фильмы (WEB-DL 720p, 1080p) [ 3.02 GB ] Флешбэк / Memory | TVShows | 720p bober100 Скачать
2 | 0
Фильмы 2022 [DVDrip, WEB-DLRip, HDrip] (DUB, MVO) [ 1.41 GB ] Флешбэк / Memory | Велес | BDRip bober100 Скачать
2 | 0
Ultra HD (UHD: 2K, 4K, 8K) [ 12.59 GB ] Флешбэк / Memory | TVShows | 2160p bober100 Скачать
1 | 0
T Фильмы 2022 (Звук TS, Cam, VO, DVO) [ 2.22 GB ] Флешбэк / Memory | Pazl Voice | DLRip-AVC Lithuania Скачать
56 | 0

28-11-2019 20:33  


Отключить вcю реклaмy на сайте, в т.ч. и в плеере онлайн просмотра!

30-05-2022 13:01 Флешбэк Скачать торрент  

Фильмец конечно так себе. Трижды засыпал пока пытался досмотреть до середины. Не советую.



29-09-2022 20:48 Флешбэк Скачать торрент  

Нормальное кино

lunohod29 писал(а):

Фильмец конечно так себе. Трижды засыпал пока пытался досмотреть до середины. Не советую.

Нормальное кино, если любитель тупых боевиков , где нет смысла одна стрельба , или точно тупые американские комедии типа тортом в рожу и смеяться пол часа , то точно не для тебя



    Дорогой пользователь! Огромная просьба, поблагодарите релизера, оцените раздачу и оставьте свои комментарий, если Вы скачали Флешбэк через торрент бесплатно!!
    Комментировать посты могут только пользователи прошедшие не сложную регистрацию
    Показать сообщения:    


    Флешбэк через торрент
    Скачать бесплатно Флешбэк
    Флешбэк скачать торрент
    Флешбэк смотреть онлайн
    Cкачать фильм Флешбэк бесплатно
    Флешбэк скачать торрент в хорошем качестве
    Флешбэк смотреть онлайн бесплатно в хорошем качестве
    Вы можете начинать темы
    Вы можете отвечать на сообщения
    Вы не можете редактировать свои сообщения
    Вы не можете удалять свои сообщения
    Вы не можете голосовать в опросах
    Вы не можете прикреплять файлы к сообщениям
    Вы можете скачивать файлы
    Флешбэк / Memory [2022, боевик, триллер, WEB-DLRip-AVC] [Дубляж] смотреть онлайн, скачать торрент picoco.icu