Всегда рабочее зеркало без VPN и Proxy просто перед .vidak.icu напиши любое слово или цифру, Пример http://t16g.vidak.icu

MVO

Лицензия

1 сезон

1

1 сезон

iTunes

1 сезон

13

1 сезон

Deluxe

pack

Рекомендуем

Пиратка

30

ВАЖНО

RePack

MK11

RePack

jed

RePack

fifa19

RePack

RDR2

RePack

NEED FOR SPEED™ PAYBACK

Кинопоиск HD

6 сезон

 Острые козырьки 6 сезон

Все сериалы

все сериалы на PB.wtf

RePack

FAR CRY 5

Anonymous, нам критически не хватает 2100 руб. на оплату серверов и переферии за МАЙ, помоги нам пожалуйста, вся надежда только на тебя. В благодарность мы отключим тебе всю рекламу на сайте!

×
  
Magnet ссылка

Мальчик-дельфин (Андрей Гоглев, Мохаммад Хейрандиш) [2021 г., мультфильм, приключения, фэнтези, комедия, WEB-DLRip 720p / 60 FPS, Не требуется Русский] от R.G. HD-Films piratbit.org

Мальчик-дельфин через торрент piratbit.org

Раздают: 13 [ 0 KB/s ] Качают: 1 [ 0 KB/s ]
Размер: 3.62 GB | Добавлен: 1 мес. 1 д. назад | Торрент скачан:123 раза
Смотреть онлайн Мальчик-дельфин | Скачать    Ребята, помогите собрать деньги на оплату серверов!!!

25-05-2022 08:08 Мальчик-дельфин Скачать торрент  

Мальчик-дельфин
Год выпуска: 2021
Страна: Россия
Жанр: мультфильм, приключения, фэнтези, комедия
Продолжительность: 01:25:10
Перевод: Не требуется Русский
Субтитры: Russian

Режиссер: Андрей Гоглев, Мохаммад Хейрандиш



В ролях: Антонина Степакова, Иван Балдычев, Степан Степаков, Егор Петров, Дмитрий Мурашев, Лассе Линдберг, Владимир Ямненко, Сергей Евсеев, Александр Тютрюмов, Иван Батарев

Описание: Дельфиненок Снежок спасает в волнах маленького мальчика, выжившего в авиакатастрофе. С тех пор друзья, почти братья, беззаботно растут вместе, будоража морских обитателей своими веселыми проделками. Пока однажды покой их радостного мирка не разрушает злобный Осьминог. Он изгоняет мальчика на сушу, где тому предстоит научиться жить среди людей и разобраться в тайне своего происхождения. Новый друг, добрый капитан Мурварид, и верный Снежок помогут мальчику справиться со всеми невзгодами — будь то на дне морском или на загадочных далеких островах. Сказочные приключения ждут!

Качество: WEB-DLRip 720p / 60 FPS
Формат: MKV
Видео кодек: H.264
Аудио кодек: AC3
Видео: x264, 1280 x 672 ( 1,905 ), 5688 kbps, 60,000 fps, ( 0.110 bpp)
Аудио#1: Русский, AC-3, 48.0 KHz, 6 ch, 384 Kbps КиноПоиск HD
Релиз от: Автор рипа: slaventi-69
x264 [info]: profile High, level 4.1
x264 [info]: frame I:1660 Avg QP:13.87 size: 97151
x264 [info]: frame P:69846 Avg QP:15.57 size: 26150
x264 [info]: frame B:235152 Avg QP:18.63 size: 7000
x264 [info]: consecutive B-frames: 2.4% 1.9% 5.0% 20.4% 44.2% 26.1%


Общее
Уникальный идентификатор : 76412181349811928717828518105798638273 (0x397C7368CADA77E03EA51A93442F7AC1)
Полное имя : G:\60 FPS\Malchik.delfin.(2021).WEB-DLRip.720p.(60 Fps).mkv
Формат : Matroska
Версия формата : Version 4
Размер файла : 3,62 Гбайт
Продолжительность : 1 ч. 25 м.
Общий поток : 6076 Кбит/сек
Название фильма : Мальчик-дельфин (2021) WEB-DLRip 720p (60 Fps)
Дата кодирования : UTC 2022-05-25 07:46:41
Программа кодирования : mkvmerge v25.0.0 ('Prog Noir') 64-bit
Библиотека кодирования : libebml v1.3.6 + libmatroska v1.4.9

Видео
Идентификатор : 1
Формат : AVC
Формат/Информация : Advanced Video Codec
Профиль формата : High@L4.1
Настройки формата : CABAC / 9 Ref Frames
Параметр CABAC формата : Да
Параметр RefFrames формата : 9 кадров
Идентификатор кодека : V_MPEG4/ISO/AVC
Продолжительность : 1 ч. 25 м.
Битрейт : 5688 Кбит/сек
Ширина : 1280 пикселей
Высота : 672 пикселя
Соотношение сторон : 1,905
Режим частоты кадров : Постоянный
Частота кадров : 60,000 кадров/сек
Цветовое пространство : YUV
Субдискретизация насыщенности : 4:2:0
Битовая глубина : 8 бит
Тип развёртки : Прогрессивная
Бит/(Пиксели*Кадры) : 0.110
Размер потока : 3,38 Гбайт (94%)
Заголовок : slaventi-69 ( R.G. HD-Films | 60 fps )
Библиотека кодирования : x264 core 130 r2273 b3065e6
Настройки программы : cabac=1 / ref=9 / deblock=1:-2:-2 / analyse=0x3:0x133 / me=umh / subme=9 / psy=1 / psy_rd=1.00:0.00 / mixed_ref=1 / me_range=32 / chroma_me=1 / trellis=2 / 8x8dct=1 / cqm=0 / deadzone=21,11 / fast_pskip=0 / chroma_qp_offset=-2 / threads=8 / lookahead_threads=2 / sliced_threads=0 / nr=0 / decimate=1 / interlaced=0 / bluray_compat=0 / constrained_intra=0 / bframes=5 / b_pyramid=2 / b_adapt=2 / b_bias=0 / direct=1 / weightb=1 / open_gop=0 / weightp=2 / keyint=600 / keyint_min=23 / scenecut=40 / intra_refresh=0 / rc=crf / mbtree=0 / crf=16.0 / qcomp=0.60 / qpmin=0 / qpmax=69 / qpstep=4 / ip_ratio=1.40 / pb_ratio=1.30 / aq=1:1.00
Язык : Russian
Default : Да
Forced : Нет

Аудио
Идентификатор : 2
Формат : AC-3
Формат/Информация : Audio Coding 3
Коммерческое название : Dolby Digital
Идентификатор кодека : A_AC3
Продолжительность : 1 ч. 25 м.
Вид битрейта : Постоянный
Битрейт : 384 Кбит/сек
Каналы : 6 каналов
Channel layout : L R C LFE Ls Rs
Частота : 48,0 КГц
Частота кадров : 31,250 кадров/сек (1536 SPF)
Битовая глубина : 16 бит
Метод сжатия : С потерями
Размер потока : 234 Мбайт (6%)
Заголовок : Original (KP HD)
Язык : Russian
ServiceKind/String : Complete Main
Default : Да
Forced : Нет

Текст
Идентификатор : 3
Формат : UTF-8
Идентификатор кодека : S_TEXT/UTF8
Идентификатор кодека/Информация : UTF-8 Plain Text
Продолжительность : 1 ч. 24 м.
Битрейт : 83 бит/сек
ElementCount : 916
Размер потока : 51,4 Кбайт (0%)
Заголовок : Full (KP HD)
Язык : Russian
Default : Нет
Forced : Нет

Просьба к переливающим на другие сайты, в оформлении указывайте пожалуйста авторство группы R.G. HD-Films piratbit.org



Скачать Мальчик-дельфин через торрент http://i117.fastpic.org/big/2022/0514/6d/68befb4751319e3d5a70dc3b29e7bd6d.jpg Скачать, смотреть онлайн Мальчик-дельфин бесплантно в хорошем качестве Описание: Дельфиненок Снежок спасает в волнах маленького мальчика, выжившего в авиакатастрофе. С тех пор друзья, почти братья, беззаботно ... 10 10 4
Info! Золотая раздача, скачанное не засчитывается.
Торрент: Зарегистрирован [2022-05-25 08:08] · скачан: 123 раз
Статус: √ проверено
Размер: 3.62 GB
Как cкачать? Как скачать Мальчик-дельфин через торрент | UTorrent

28-11-2019 20:33  

Отключить всю рекламу на сайте

    Дорогой пользователь! Огромная просьба, поблагодарите релизера, оцените раздачу и оставьте свои комментарий, если Вы скачали Мальчик-дельфин через торрент бесплатно!
    Комментировать посты могут только пользователи прошедшие не сложную регистрацию
    Показать сообщения:    

    Мальчик-дельфин через торрент
    Скачать бесплатно Мальчик-дельфин
    Мальчик-дельфин скачать торрент
    Мальчик-дельфин смотреть онлайн
    Cкачать фильм Мальчик-дельфин бесплатно
    Мальчик-дельфин скачать торрент в хорошем качестве
    Мальчик-дельфин смотреть онлайн бесплатно в хорошем качестве


    Вы не можете начинать темы
    Вы не можете отвечать на сообщения
    Вы не можете редактировать свои сообщения
    Вы не можете удалять свои сообщения
    Вы не можете голосовать в опросах
    Вы не можете прикреплять файлы к сообщениям
    Вы можете скачивать файлы