Всегда рабочее зеркало без VPN и Proxy просто перед .vidak.icu напиши любое слово или цифру, Пример http://15c2.vidak.icu

MVO

Лицензия

1 сезон

1

1 сезон

iTunes

1 сезон

13

1 сезон

Deluxe

pack

Рекомендуем

Пиратка

30

ВАЖНО

RePack

MK11

RePack

jed

RePack

fifa19

RePack

RDR2

RePack

NEED FOR SPEED™ PAYBACK

Кинопоиск HD

6 сезон

 Острые козырьки 6 сезон

Все сериалы

все сериалы на PB.wtf

RePack

FAR CRY 5

Anonymous, нам критически не хватает 2100 руб. на оплату серверов и переферии за МАЙ, помоги нам пожалуйста, вся надежда только на тебя. В благодарность мы отключим тебе всю рекламу на сайте!

×
  
Magnet ссылка

Чип и Дейл спешат на помощь / Chip 'n Dale: Rescue Rangers (Акива Шаффер) [2022 г., Мультфильм, комедия, детектив, приключения, WEB-DLRip 720p / 60 FPS, MVO] от R.G. HD-Films piratbit.org

Чип и Дейл спешат на помощь через торрент piratbit.org

Раздают: 26 [ 153 KB/s ] Качают: 1 [ 0 KB/s ]
Размер: 3.3 GB | Добавлен: 29 д. назад | Торрент скачан:313 раз
Смотреть онлайн Чип и Дейл спешат на помощь | Скачать    Ребята, помогите собрать деньги на оплату серверов!!!

26-05-2022 08:43 Чип и Дейл спешат на помощь Скачать торрент  

Чип и Дейл спешат на помощь / Chip 'n Dale: Rescue Rangers
Год выпуска: 2022
Страна: США
Жанр: Мультфильм, комедия, детектив, приключения,
Продолжительность: 01:36:45
Перевод: Профессиональный (многоголосый, закадровый) | Jaskier
Субтитры: русские, английские

Режиссер: Акива Шаффер

Премьера в мире: 20 мая 2022

rating

В ролях: Энди Сэмберг, Джон Малэйни, КиКи Лэйн, Уилл Арнетт, Эрик Бана, Флула Борг, Дэннис Хэйсбёрт, Кигэн-Майкл Ки, Тресс МакНилл, Тим Робинсон

Описание: «Чип и Дейл спешат на помощь» — известное шоу, в котором когда-то снимались бурундуки и их друзья. Прошло 30 лет. Чип стал страховым агентом, а Дейл зарабатывает, рассказывая о своих прежних успехах на разных фестивалях. Но когда пропадает их друг, бурундуки снова объединяются, чтобы спасти товарища.

Качество: WEB-DLRip 720p / 60 FPS
Формат: MKV
Видео кодек: H.264
Аудио кодек: AC3
Видео: x264, 1280 x 536 ( 2,40:1 ), 4496 kbps, 60,000 fps, ( 0.109 bpp)
Аудио#1: Русский, AC-3, 48.0 KHz, 6 ch, 384 Kbps MVO ( Jaskier )
Релиз от: Автор рипа: slaventi-69
x264 [info]: profile High, level 4.1
x264 [info]: frame I:1644 Avg QP:15.95 size: 76341
x264 [info]: frame P:80335 Avg QP:17.37 size: 21030
x264 [info]: frame B:266362 Avg QP:19.91 size: 5435
x264 [info]: consecutive B-frames: 2.1% 2.6% 8.2% 14.4% 51.6% 21.1%


Общее
Уникальный идентификатор : 152400478916098656720189773887664252518 (0x72A743BC0FD9441A0BFF9412EF1F6666)
Полное имя : G:\60 FPS\Chip.n.Dale.Rescue.Rangers.(2022).WEB-DLRip.720p.(60 Fps).mkv
Формат : Matroska
Версия формата : Version 4
Размер файла : 3,30 Гбайт
Продолжительность : 1 ч. 36 м.
Общий поток : 4885 Кбит/сек
Название фильма : Чип и Дейл спешат на помощь / Chip 'n Dale: Rescue Rangers (2022) WEB-DLRip 720p (60 Fps)
Дата кодирования : UTC 2022-05-26 08:04:31
Программа кодирования : mkvmerge v25.0.0 ('Prog Noir') 64-bit
Библиотека кодирования : libebml v1.3.6 + libmatroska v1.4.9

Видео
Идентификатор : 1
Формат : AVC
Формат/Информация : Advanced Video Codec
Профиль формата : High@L4.1
Настройки формата : CABAC / 9 Ref Frames
Параметр CABAC формата : Да
Параметр RefFrames формата : 9 кадров
Идентификатор кодека : V_MPEG4/ISO/AVC
Продолжительность : 1 ч. 36 м.
Битрейт : 4496 Кбит/сек
Ширина : 1280 пикселей
Высота : 536 пикселей
Соотношение сторон : 2,40:1
Режим частоты кадров : Постоянный
Частота кадров : 60,000 кадров/сек
Цветовое пространство : YUV
Субдискретизация насыщенности : 4:2:0
Битовая глубина : 8 бит
Тип развёртки : Прогрессивная
Бит/(Пиксели*Кадры) : 0.109
Размер потока : 3,04 Гбайт (92%)
Заголовок : slaventi-69 ( R.G. HD-Films | 60 fps )
Библиотека кодирования : x264 core 130 r2273 b3065e6
Настройки программы : cabac=1 / ref=9 / deblock=1:-2:-2 / analyse=0x3:0x133 / me=umh / subme=9 / psy=1 / psy_rd=1.00:0.00 / mixed_ref=1 / me_range=32 / chroma_me=1 / trellis=2 / 8x8dct=1 / cqm=0 / deadzone=21,11 / fast_pskip=0 / chroma_qp_offset=-2 / threads=8 / lookahead_threads=2 / sliced_threads=0 / nr=0 / decimate=1 / interlaced=0 / bluray_compat=0 / constrained_intra=0 / bframes=5 / b_pyramid=2 / b_adapt=2 / b_bias=0 / direct=1 / weightb=1 / open_gop=0 / weightp=2 / keyint=600 / keyint_min=23 / scenecut=40 / intra_refresh=0 / rc=crf / mbtree=0 / crf=16.2 / qcomp=0.60 / qpmin=0 / qpmax=69 / qpstep=4 / ip_ratio=1.40 / pb_ratio=1.30 / aq=1:1.00
Язык : English
Default : Да
Forced : Нет

Аудио
Идентификатор : 2
Формат : AC-3
Формат/Информация : Audio Coding 3
Коммерческое название : Dolby Digital
Идентификатор кодека : A_AC3
Продолжительность : 1 ч. 36 м.
Вид битрейта : Постоянный
Битрейт : 384 Кбит/сек
Каналы : 6 каналов
Channel layout : L R C LFE Ls Rs
Частота : 48,0 КГц
Частота кадров : 31,250 кадров/сек (1536 SPF)
Битовая глубина : 16 бит
Метод сжатия : С потерями
Размер потока : 266 Мбайт (8%)
Заголовок : MVO ( Jaskier )
Язык : Russian
ServiceKind/String : Complete Main
Default : Да
Forced : Нет

Текст #1
Идентификатор : 3
Формат : UTF-8
Идентификатор кодека : S_TEXT/UTF8
Идентификатор кодека/Информация : UTF-8 Plain Text
Продолжительность : 1 ч. 29 м.
Битрейт : 154 бит/сек
ElementCount : 1449
Размер потока : 101 Кбайт (0%)
Заголовок : Русские (Full) - Cool Story Blog
Язык : Russian
Default : Нет
Forced : Нет

Текст #2
Идентификатор : 4
Формат : UTF-8
Идентификатор кодека : S_TEXT/UTF8
Идентификатор кодека/Информация : UTF-8 Plain Text
Продолжительность : 1 ч. 29 м.
Битрейт : 138 бит/сек
ElementCount : 1557
Размер потока : 90,5 Кбайт (0%)
Заголовок : Русские (Full) - Женя Спицын
Язык : Russian
Default : Нет
Forced : Нет

Текст #3
Идентификатор : 5
Формат : UTF-8
Идентификатор кодека : S_TEXT/UTF8
Идентификатор кодека/Информация : UTF-8 Plain Text
Продолжительность : 1 ч. 28 м.
Битрейт : 163 бит/сек
ElementCount : 1437
Размер потока : 107 Кбайт (0%)
Заголовок : Русские (Full) - Sub-Toon Inc.
Язык : Russian
Default : Нет
Forced : Нет

Текст #4
Идентификатор : 6
Формат : ASS
Идентификатор кодека : S_TEXT/ASS
Идентификатор кодека/Информация : Advanced Sub Station Alpha
Продолжительность : 1 ч. 29 м.
Битрейт : 185 бит/сек
ElementCount : 1439
Метод сжатия : Без потерь
Размер потока : 121 Кбайт (0%)
Заголовок : Русские (Full) - Mystery World Team
Язык : Russian
Default : Нет
Forced : Нет

Текст #5
Идентификатор : 7
Формат : UTF-8
Идентификатор кодека : S_TEXT/UTF8
Идентификатор кодека/Информация : UTF-8 Plain Text
Продолжительность : 1 ч. 28 м.
Битрейт : 90 бит/сек
ElementCount : 1490
Размер потока : 59,2 Кбайт (0%)
Заголовок : English (Full)
Язык : English
Default : Нет
Forced : Нет

Текст #6
Идентификатор : 8
Формат : UTF-8
Идентификатор кодека : S_TEXT/UTF8
Идентификатор кодека/Информация : UTF-8 Plain Text
Продолжительность : 1 ч. 35 м.
Битрейт : 95 бит/сек
ElementCount : 1688
Размер потока : 67,0 Кбайт (0%)
Заголовок : English (SDH)
Язык : English
Default : Нет
Forced : Нет

Просьба к переливающим на другие сайты, в оформлении указывайте пожалуйста авторство группы R.G. HD-Films piratbit.org



Скачать Чип и Дейл спешат на помощь через торрент https://i120.fastpic.org/big/2022/0525/0a/a37ecf662bf4b89670584e0fecb45f0a.jpg Скачать, смотреть онлайн Чип и Дейл спешат на помощь бесплантно в хорошем качестве Описание: «Чип и Дейл спешат на помощь» — известное шоу, в котором когда-то снимались бурундуки и их друзья. Прошло 30 лет. Чип стал ... 7.4 10 7
Info! Золотая раздача, скачанное не засчитывается.
Торрент: Зарегистрирован [2022-05-26 08:43] · скачан: 313 раз
Статус: √ проверено
Размер: 3.3 GB
Как cкачать? Как скачать Чип и Дейл спешат на помощь через торрент | UTorrent

28-11-2019 20:33  

Отключить всю рекламу на сайте

26-05-2022 11:17 Чип и Дейл спешат на помощь Скачать торрент  

Шо за наркомания о_О. Просто адский пипец >_<piratbit.org



26-05-2022 19:05 Чип и Дейл спешат на помощь Скачать торрент  

Лютейший трешак. Как Дисней умудрился вообще снять такое - я до сих пор в недоумении.piratbit.org



    Дорогой пользователь! Огромная просьба, поблагодарите релизера, оцените раздачу и оставьте свои комментарий, если Вы скачали Чип и Дейл спешат на помощь через торрент бесплатно!
    Комментировать посты могут только пользователи прошедшие не сложную регистрацию
    Показать сообщения:    

    Чип и Дейл спешат на помощь через торрент
    Скачать бесплатно Чип и Дейл спешат на помощь
    Чип и Дейл спешат на помощь скачать торрент
    Чип и Дейл спешат на помощь смотреть онлайн
    Cкачать фильм Чип и Дейл спешат на помощь бесплатно
    Чип и Дейл спешат на помощь скачать торрент в хорошем качестве
    Чип и Дейл спешат на помощь смотреть онлайн бесплатно в хорошем качестве


    Вы не можете начинать темы
    Вы не можете отвечать на сообщения
    Вы не можете редактировать свои сообщения
    Вы не можете удалять свои сообщения
    Вы не можете голосовать в опросах
    Вы не можете прикреплять файлы к сообщениям
    Вы можете скачивать файлы