Достать ножи: Стеклянная луковица

MVO

Добыча

Дубляж

Уэнсдэй

1 сезон

Тор

Дубляж

13 клиническая

1 сезон

Жестокая ночь

MVO

Одни из нас

1 сезон

Deluxe

pack

Рекомендуем

30

Пиратка

ВАЖНО

ВАЖНО

Ghostwire

Пиратка

jed

RePack

nioh2

RePack

RDR2

RePack

NEED FOR SPEED™ PAYBACK

RePack

скачать торрент

Кинопоиск HD

Острые козырьки 6 сезон

6 сезон

FAR CRY 6

RePack

скачать торрент

Лицензия

скачать торрент

MVO

1

1 сезон

скачать торрент

1 сезон

скачать торрент

Лицензия

  

Фантастические твари: Тайны Дамблдора / Fantastic Beasts: The Secrets of Dumbledore (Дэвид Йейтс) [2022, Фэнтези, приключения, семейный, UHD WEB-DL-HEVC 2160p] Дубляж [Red Head Sound] +4xMVO (rus, ukr)

Фантастические твари: Тайны Дамблдора через торрент piratbit.org

Раздают: 1 [ 0 KB/s ]
Размер: 20.49 GB | Добавлен: 8 мес. назад | Торрент скачан:325 раз
Смотреть онлайн | Скачать | Поддержите нас   

30-05-2022 15:31 Фантастические твари: Тайны Дамблдора Скачать торрент  

Фантастические твари: Тайны Дамблдора
Fantastic Beasts: The Secrets of Dumbledore

Год выпуска: 2022
Страна: Великобритания, США
Выпущено: Heyday Films, Warner Bros.
Жанр: Фэнтези, приключения, семейный
Продолжительность: 02:22:39
Перевод(ы):
#1: Дублированный | Red Head Sound
#2: Профессиональный многоголосый | HDRezka
#3: Профессиональный многоголосый | Jaskier
#4: Профессиональный многоголосый | NewComers
#5: Профессиональный многоголосый | TVShows
Субтитры: Русские (2 x Forced, 2 x full), украинские (Forced), английские

Режиссер: Дэвид Йейтс

rating

В ролях: Эдди Редмэйн, Джуд Лоу, Эзра Миллер, Дэн Фоглер, Элисон Судол, Каллум Тернер, Джессика Уильямс, Кэтрин Уотерстон, Мадс Миккельсен, Оливер Мазуччи

Описание: Профессор Альбус Дамблдор узнает, что могущественный темный волшебник Геллерт Грин-де-Вальд планирует захватить Влacть над миром. Понимая, что не сможет остановить его в одиночку, Дамблдор просит магозоолога Ньюта Саламандера возглавить команду из выдающихся волшебников и одного отважного магла-пекаря. Им предстоят невероятно опасные приключения, встреча со старыми и укрощение новых магических существ и борьба со сторонниками Грин-де-Вальда, которых становится все больше. Но какая роль в этой миссии уготована самому Дамблдору?

Качество: UHD WEB-DL-HEVC 2160p
Формат: MKV

Видео: 3840x2160 at 23.976 fps, MPEG-H HEVC DDR, ~ 17200 kbps avg
Аудио #01: 48 kHz, AC3, 5.1, 640 Kbps | Дублированный | Red Head Sound | RUS |
Аудио #02: 48 kHz, AC3, 5.1, 448 Kbps | Профессиональный многоголосый | HDRezka | RUS |
Аудио #03: 48 kHz, AC3, 5.1, 448 Kbps | Профессиональный многоголосый | Jaskier | RUS |
Аудио #04: 48 kHz, AC3, 5.1, 448 Kbps | Профессиональный многоголосый | NewComers | RUS |
Аудио #05: 48 kHz, AC3, 2.0, 192 Kbps | Профессиональный многоголосый | TVShows | RUS |
Аудио #06: 48 kHz, AC3, 5.1, 384 Kbps | Профессиональный многоголосый | HDRezka | UKR |
Аудио #07: 48 kHz, E-AC3+Atmos, 5.1, 768 Kbps | Оригинал | ENG |
скриншот  скриншот  скриншот  скриншот  скриншот  

General
Unique ID : 200971149437782965799256581669330157693 (0x9731A2ADE6976087304DC7E1F089007D)
Complete name : E:\Video1\Fantastic.Beasts.The.Secrets.of.Dumbledore.2022.WEB-DL.2160p.HDR.seleZen.mkv
Format : Matroska
Format version : Version 4
File size : 20.5 GiB
Duration : 2 h 22 min
Overall bit rate : 20.6 Mb/s
Movie name : Fantastic Beasts The.Secrets of Dumbledore 2022 from seleZen
Encoded date : UTC 2022-06-04 17:36:33
Writing application : mkvmerge v59.0.0 ('Shining Star') 64-bit
Writing library : libebml v1.4.2 + libmatroska v1.6.4

Video
ID : 1
Format : HEVC
Format/Info : High Efficiency Video Coding
Format profile : Main 10@L5@Main
HDR format : SMPTE ST 2086, HDR10 compatible
Codec ID : V_MPEGH/ISO/HEVC
Duration : 2 h 22 min
Bit rate : 17.2 Mb/s
Width : 3 840 pixels
Height : 2 160 pixels
Display aspect ratio : 16:9
Frame rate mode : Constant
Frame rate : 23.976 (24000/1001) FPS
Color space : YUV
Chroma subsampling : 4:2:0
Bit depth : 10 bits
Bits/(Pixel*Frame) : 0.087
Stream size : 17.2 GiB (84%)
Writing library : x265 3.4hy:[Linux][GCC 7.5.0][64 bit] 10bit
Encoding settings : cpuid=1111039 / frame-threads=1 / wpp / no-pmode / no-pme / no-psnr / no-ssim / log-level=2 / input-csp=1 / input-res=3840x2160 / interlace=0 / total-frames=0 / level-idc=0 / high-tier=1 / uhd-bd=0 / ref=4 / no-allow-non-conformance / repeat-headers / annexb / no-aud / no-hrd / info / hash=0 / no-temporal-layers / no-open-gop / min-keyint=96 / keyint=96 / gop-lookahead=0 / bframes=3 / b-adapt=2 / b-pyramid / bframe-bias=0 / rc-lookahead=25 / lookahead-slices=4 / scenecut=40 / hist-scenecut=0 / radl=0 / no-splice / no-intra-refresh / ctu=64 / min-cu-size=8 / rect / no-amp / max-tu-size=32 / tu-inter-depth=1 / tu-intra-depth=1 / limit-tu=0 / rdoq-level=2 / dynamic-rd=0.00 / no-ssim-rd / signhide / no-tskip / nr-intra=0 / nr-inter=0 / no-constrained-intra / strong-intra-smoothing / max-merge=3 / limit-refs=3 / limit-modes / me=3 / subme=3 / merange=57 / temporal-mvp / no-frame-dup / no-hme / weightp / no-weightb / no-analyze-src-pics / deblock=0:0 / sao / no-sao-non-deblock / rd=4 / selective-sao=4 / no-early-skip / rskip / no-fast-intra / no-tskip-fast / no-cu-lossless / no-b-intra / no-splitrd-skip / rdpenalty=0 / psy-rd=2.00 / psy-rdoq=1.00 / no-rd-refine / no-lossless / cbqpoffs=0 / crqpoffs=0 / rc=abr / bitrate=18000 / qcomp=0.60 / qpstep=4 / stats-write=0 / stats-read=2 / cplxblur=20.0 / qblur=0.5 / vbv-maxrate=24500 / vbv-bufsize=24500 / vbv-init=0.6 / vbv-end=0.6 / vbv-end-fr-adj=0.0 / ipratio=1.40 / pbratio=1.30 / aq-mode=2 / aq-strength=1.00 / cutree / zone-count=0 / no-strict-cbr / qg-size=32 / no-rc-grain / qpmax=69 / qpmin=0 / no-const-vbv / sar=0 / overscan=0 / videoformat=5 / range=0 / colorprim=9 / transfer=16 / colormatrix=9 / chromaloc=0 / display-window=0 / master-display=G(13250,34500)B(7500,3000)R(34000,16000)WP(15635,16450)L(10000000,1) / cll=500,54 / min-luma=0 / max-luma=1023 / log2-max-poc-lsb=8 / vui-timing-info / vui-hrd-info / no-concatenation / slices=1 / no-opt-qp-pps / no-opt-ref-list-length-pps / no-multi-pass-opt-rps / scenecut-bias=0.05 / hist-threshold=0.01 / no-opt-cu-delta-qp / no-aq-motion / hdr10 / no-hdr10-opt / no-dhdr10-opt / no-idr-recovery-sei / analysis-reuse-level=0 / analysis-save-reuse-level=0 / analysis-load-reuse-level=0 / scale-factor=0 / refine-intra=0 / refine-inter=0 / refine-mv=1 / refine-ctu-distortion=0 / no-limit-sao / ctu-info=0 / no-lowpass-dct / refine-analysis-type=0 / copy-pic=1 / max-ausize-factor=1.0 / no-dynamic-refine / no-single-sei / no-hevc-aq / no-svt / no-field / qp-adaptation-range=1.00 / no-scenecut-aware-qpconformance-window-offsets / right=0 / bottom=0 / decoder-max-rate=0
Language : English
Default : Yes
Forced : No
Color range : Limited
Color primaries : BT.2020
Transfer characteristics : PQ
Matrix coefficients : BT.2020 non-constant
Mastering display color pri : Display P3
Mastering display luminance : min: 0.0001 cd/m2, max: 1000 cd/m2
Maximum Content Light Level : 500 cd/m2
Maximum Frame-Average Light : 54 cd/m2

Audio #1
ID : 2
Format : AC-3
Format/Info : Audio Coding 3
Commercial name : Dolby Digital
Codec ID : A_AC3
Duration : 2 h 22 min
Bit rate mode : Constant
Bit rate : 640 kb/s
Channel(s) : 6 channels
Channel layout : L R C LFE Ls Rs
Sampling rate : 48.0 kHz
Frame rate : 31.250 FPS (1536 SPF)
Compression mode : Lossy
Stream size : 653 MiB (3%)
Title : Дубляж
Language : Russian
Service kind : Complete Main
Default : Yes
Forced : Yes

Audio #2
ID : 3
Format : AC-3
Format/Info : Audio Coding 3
Commercial name : Dolby Digital
Codec ID : A_AC3
Duration : 2 h 22 min
Bit rate mode : Constant
Bit rate : 448 kb/s
Channel(s) : 6 channels
Channel layout : L R C LFE Ls Rs
Sampling rate : 48.0 kHz
Frame rate : 31.250 FPS (1536 SPF)
Compression mode : Lossy
Stream size : 457 MiB (2%)
Title : MVO [HDRezka]
Language : Russian
Service kind : Complete Main
Default : No
Forced : No

Audio #3
ID : 4
Format : AC-3
Format/Info : Audio Coding 3
Commercial name : Dolby Digital
Codec ID : A_AC3
Duration : 2 h 22 min
Bit rate mode : Constant
Bit rate : 448 kb/s
Channel(s) : 6 channels
Channel layout : L R C LFE Ls Rs
Sampling rate : 48.0 kHz
Frame rate : 31.250 FPS (1536 SPF)
Compression mode : Lossy
Stream size : 457 MiB (2%)
Title : MVO [Jaskier]
Language : Russian
Service kind : Complete Main
Default : No
Forced : No

Audio #4
ID : 5
Format : AC-3
Format/Info : Audio Coding 3
Commercial name : Dolby Digital
Codec ID : A_AC3
Duration : 2 h 22 min
Bit rate mode : Constant
Bit rate : 448 kb/s
Channel(s) : 6 channels
Channel layout : L R C LFE Ls Rs
Sampling rate : 48.0 kHz
Frame rate : 31.250 FPS (1536 SPF)
Compression mode : Lossy
Stream size : 457 MiB (2%)
Title : MVO [NewComers]
Language : Russian
Service kind : Complete Main
Default : No
Forced : No

Audio #5
ID : 6
Format : AC-3
Format/Info : Audio Coding 3
Commercial name : Dolby Digital
Codec ID : A_AC3
Duration : 2 h 22 min
Bit rate mode : Constant
Bit rate : 192 kb/s
Channel(s) : 2 channels
Channel layout : L R
Sampling rate : 48.0 kHz
Frame rate : 31.250 FPS (1536 SPF)
Compression mode : Lossy
Stream size : 196 MiB (1%)
Title : MVO [TVShows]
Language : Russian
Service kind : Complete Main
Default : No
Forced : No

Audio #6
ID : 7
Format : AC-3
Format/Info : Audio Coding 3
Commercial name : Dolby Digital
Codec ID : A_AC3
Duration : 2 h 22 min
Bit rate mode : Constant
Bit rate : 384 kb/s
Channel(s) : 6 channels
Channel layout : L R C LFE Ls Rs
Sampling rate : 48.0 kHz
Frame rate : 31.250 FPS (1536 SPF)
Compression mode : Lossy
Stream size : 392 MiB (2%)
Title : MVO [HDRezka]
Language : Ukrainian
Service kind : Complete Main
Default : No
Forced : No

Audio #7
ID : 8
Format : E-AC-3 JOC
Format/Info : Enhanced AC-3 with Joint Object Coding
Commercial name : Dolby Digital Plus with Dolby Atmos
Codec ID : A_EAC3
Duration : 2 h 22 min
Bit rate mode : Constant
Bit rate : 768 kb/s
Channel(s) : 6 channels
Channel layout : L R C LFE Ls Rs
Sampling rate : 48.0 kHz
Frame rate : 31.250 FPS (1536 SPF)
Compression mode : Lossy
Stream size : 784 MiB (4%)
Title : Original
Language : English
Service kind : Complete Main
Default : No
Forced : No
Complexity index : 16
Number of dynamic objects : 15
Bed channel count : 1 channel
Bed channel configuration : LFE

Text #1
ID : 9
Format : UTF-8
Codec ID : S_TEXT/UTF8
Codec ID/Info : UTF-8 Plain Text
Duration : 1 h 10 min
Bit rate : 0 b/s
Count of elements : 13
Stream size : 421 Bytes (0%)
Title : Forced [HDRezka]
Language : Russian
Default : Yes
Forced : Yes

Text #2
ID : 10
Format : UTF-8
Codec ID : S_TEXT/UTF8
Codec ID/Info : UTF-8 Plain Text
Duration : 1 h 13 min
Bit rate : 0 b/s
Count of elements : 6
Stream size : 257 Bytes (0%)
Title : Forced [NewComers]
Language : Russian
Default : No
Forced : No

Text #3
ID : 11
Format : UTF-8
Codec ID : S_TEXT/UTF8
Codec ID/Info : UTF-8 Plain Text
Duration : 2 h 11 min
Bit rate : 54 b/s
Count of elements : 1201
Stream size : 52.7 KiB (0%)
Title : Full
Language : Russian
Default : No
Forced : No

Text #4
ID : 12
Format : UTF-8
Codec ID : S_TEXT/UTF8
Codec ID/Info : UTF-8 Plain Text
Duration : 2 h 11 min
Bit rate : 56 b/s
Count of elements : 1099
Stream size : 54.1 KiB (0%)
Title : Full v.2
Language : Russian
Default : No
Forced : No

Text #5
ID : 13
Format : UTF-8
Codec ID : S_TEXT/UTF8
Codec ID/Info : UTF-8 Plain Text
Duration : 1 h 10 min
Bit rate : 1 b/s
Count of elements : 12
Stream size : 541 Bytes (0%)
Title : Forced [HDRezka]
Language : Ukrainian
Default : No
Forced : No

Text #6
ID : 14
Format : UTF-8
Codec ID : S_TEXT/UTF8
Codec ID/Info : UTF-8 Plain Text
Duration : 2 h 20 min
Bit rate : 45 b/s
Count of elements : 1823
Stream size : 46.6 KiB (0%)
Title : SDH
Language : English
Default : No
Forced : No




Скачать Фантастические твари: Тайны Дамблдора через торрент https://i120.fastpic.org/big/2022/0530/45/caca01ab89fad446b09c98ce686d3f45.jpg Скачать, смотреть онлайн Фантастические твари: Тайны Дамблдора бесплантно в хорошем качестве Описание: Профессор Альбус Дамблдор узнает, что могущественный темный волшебник Геллерт Грин-де-Вальд планирует захватить Влacть над миром. ... 10 10 15
Info! Золотая раздача, скачанное не засчитывается.
Торрент: Зарегистрирован [2022-06-04 17:53] · скачан: 325 раз
Статус: √ проверено
Размер: 20.49 GB
Как cкачать? Как скачать Фантастические твари: Тайны Дамблдора через торрент | UTorrent

% Раздел Тема Автор DL S | L
Фильмы 2022-2023 [DVDrip, WEB-DLRip, HDrip] (DUB, MVO) [ 1.46 GB ] Фантастические твари: Тайны Дамблдора / Fantastic Beasts: The Secrets of Dumbledore | Лицензия | BDRip bober100 Скачать
14 | 1
Фильмы (Blu-ray, BD-Remux, HDDVD) [ 27.88 GB ] Фантастические твари: Тайны Дамблдора / Fantastic Beasts: The Secrets of Dumbledore | Лицензия | BD Remux 1080p bober100 Скачать
2 | 0
Ultra HD (UHD: 2K, 4K, 8K) [ 64.07 GB ] Фантастические твари: Тайны Дамблдора / Fantastic Beasts: The Secrets of Dumbledore | Лицензия | 2160p, (Dolby Vision bober100 Скачать
3 | 0
Ultra HD (UHD: 2K, 4K, 8K) [ 58.24 GB ] Фантастические твари: Тайны Дамблдора / Fantastic Beasts: The Secrets of Dumbledore | Лицензия | 2160p, (Dolby Vision Profile 8 bober100 Скачать
4 | 0
Фильмы [HD 720p, 1080p] (Хороший звук DUB, MVO) [ 7.74 GB ] Фантастические твари: Тайны Дамблдора / Fantastic Beasts: The Secrets of Dumbledore | Лицензия | 720p bober100 Скачать
6 | 0
Фильмы [HD 720p, 1080p] (Хороший звук DUB, MVO) [ 10.29 GB ] Фантастические твари: Тайны Дамблдора / Fantastic Beasts: The Secrets of Dumbledore | Лицензия | 1080p bober100 Скачать
8 | 0
Фильмы 2022-2023 [DVDrip, WEB-DLRip, HDrip] (DUB, MVO) [ 748 MB ] Фантастические твари: Тайны Дамблдора / Fantastic Beasts: The Secrets of Dumbledore | HDRezka Studio | HDRip bober100 Скачать
3 | 1

28-11-2019 20:33  


Отключить вcю реклaмy на сайте, в т.ч. и в плеере онлайн просмотра!

    Дорогой пользователь! Огромная просьба, поблагодарите релизера, оцените раздачу и оставьте свои комментарий, если Вы скачали Фантастические твари: Тайны Дамблдора через торрент бесплатно!!
    Комментировать посты могут только пользователи прошедшие не сложную регистрацию
    Показать сообщения:    


    Фантастические твари: Тайны Дамблдора через торрент
    Скачать бесплатно Фантастические твари: Тайны Дамблдора
    Фантастические твари: Тайны Дамблдора скачать торрент
    Фантастические твари: Тайны Дамблдора смотреть онлайн
    Cкачать фильм Фантастические твари: Тайны Дамблдора бесплатно
    Фантастические твари: Тайны Дамблдора скачать торрент в хорошем качестве
    Фантастические твари: Тайны Дамблдора смотреть онлайн бесплатно в хорошем качестве
    Вы не можете начинать темы
    Вы не можете отвечать на сообщения
    Вы не можете редактировать свои сообщения
    Вы не можете удалять свои сообщения
    Вы не можете голосовать в опросах
    Вы не можете прикреплять файлы к сообщениям
    Вы можете скачивать файлы
    Фантастические твари: Тайны Дамблдора / Fantastic Beasts: The Secrets of Dumbledore [2022, Фэнтези, приключения, семейный, UHD WEB-DL-HEVC 2160p] Дубляж [Red Head Sound] +4xMVO смотреть онлайн, скачать торрент picoco.icu