Всегда рабочее зеркало без VPN и Proxy просто перед .vidak.icu напиши любое слово или цифру, Пример http://pvd0.vidak.icu

MVO

Лицензия

1 сезон

1

1 сезон

iTunes

1 сезон

13

1 сезон

Deluxe

pack

Рекомендуем

Пиратка

30

ВАЖНО

RePack

MK11

RePack

jed

RePack

fifa19

RePack

RDR2

RePack

NEED FOR SPEED™ PAYBACK

Кинопоиск HD

6 сезон

 Острые козырьки 6 сезон

Все сериалы

все сериалы на PB.wtf

RePack

FAR CRY 5

Anonymous, нам критически не хватает 2100 руб. на оплату серверов и переферии за МАЙ, помоги нам пожалуйста, вся надежда только на тебя. В благодарность мы отключим тебе всю рекламу на сайте!

×
  
Magnet ссылка

Пламенное сердце / Vaillante / Fireheart (Теодор Ти, Лоран Зэйтун) [2022 г., Мультфильм, комедия, приключения, BDRip 720p / 60 FPS, Дубляж] от R.G. HD-Films piratbit.org

Пламенное сердце через торрент piratbit.org

Раздают: 18 [ 0 KB/s ]
Размер: 2.93 GB | Добавлен: 25 д. назад | Торрент скачан:160 раз
Смотреть онлайн Пламенное сердце | Скачать    Ребята, помогите собрать деньги на оплату серверов!!!

01-06-2022 09:17 Пламенное сердце Скачать торрент  

Пламенное сердце / Vaillante / Fireheart
Год выпуска: 2022
Страна: Франция, Канада
Жанр: Мультфильм, комедия, приключения
Продолжительность: 01:32:16
Перевод: Дубляж
Субтитры: English

Режиссер: Теодор Ти, Лоран Зэйтун

Премьера в мире: 2 февраля 2022

rating

В ролях: Оливия Кук, Кеннет Брана, Лори Холден, Уильям Шетнер, Мара Жюно, Уайлекс Ли, Райан В. Гарсиа, Алис Поль, Венсан Кассель, Валери Лемерсье, Клаудия Тагбо, Эли Семун, Эммануэль Кюртиль, Эммануэль Гариджо, Александр Н’Гуэн

Описание: С самого детства у Джорджии Нолан была только одна мечта: стать пожарным, как ее папа! К сожалению, законы того времени не оставляли шанса этой мечте осуществиться. Но когда в городе стали один за другим пропадать пожарные, а таинственные пожары — сжигать дотла городские театры, Джорджиа поняла: вот она, ее возможность! Переодевшись в «Джо», неуклюжего парня с усиками, она присоединяется к команде пожарных-добровольцев, которым поручено остановить загадочного поджигателя. Джорджии придется здорово постараться, чтобы ее не раскрыли, особенно учитывая, что возглавляет рискованное расследование ее отец.

Качество: BDRip 720p / 60 FPS
Формат: MKV
Видео кодек: H.264
Аудио кодек: AC3
Видео: x264, 1280 x 536 ( 2,40:1 ), 4151 kbps, 60,000 fps, ( 0.101 bpp)
Аудио#1: Русский, AC-3, 48.0 KHz, 6 ch, 384 Kbps IYUNO SDI Group
Релиз от: Автор рипа: slaventi-69
x264 [info]: profile High, level 4.1
x264 [info]: frame I:1374 Avg QP:15.44 size: 93780
x264 [info]: frame P:77287 Avg QP:16.86 size: 20030
x264 [info]: frame B:253545 Avg QP:19.92 size: 4716
x264 [info]: consecutive B-frames: 1.5% 3.4% 9.4% 19.2% 42.7% 23.8%


Общее
Уникальный идентификатор : 244193710518345783427058587483919051991 (0xB7B5FF7875E1FB789A361FD09F736CD7)
Полное имя : G:\60 FPS\Fireheart.(2022).BDRip.720p.(60 Fps).mkv
Формат : Matroska
Версия формата : Version 4
Размер файла : 2,93 Гбайт
Продолжительность : 1 ч. 32 м.
Общий поток : 4539 Кбит/сек
Название фильма : Пламенное сердце / Vaillante / Fireheart (2022) BDRip 720p (60 Fps)
Дата кодирования : UTC 2022-06-01 08:57:27
Программа кодирования : mkvmerge v25.0.0 ('Prog Noir') 64-bit
Библиотека кодирования : libebml v1.3.6 + libmatroska v1.4.9

Видео
Идентификатор : 1
Формат : AVC
Формат/Информация : Advanced Video Codec
Профиль формата : High@L4.1
Настройки формата : CABAC / 9 Ref Frames
Параметр CABAC формата : Да
Параметр RefFrames формата : 9 кадров
Идентификатор кодека : V_MPEG4/ISO/AVC
Продолжительность : 1 ч. 32 м.
Битрейт : 4151 Кбит/сек
Ширина : 1280 пикселей
Высота : 536 пикселей
Соотношение сторон : 2,40:1
Режим частоты кадров : Постоянный
Частота кадров : 60,000 кадров/сек
Цветовое пространство : YUV
Субдискретизация насыщенности : 4:2:0
Битовая глубина : 8 бит
Тип развёртки : Прогрессивная
Бит/(Пиксели*Кадры) : 0.101
Размер потока : 2,68 Гбайт (91%)
Заголовок : slaventi-69 ( R.G. HD-Films | 60 fps )
Библиотека кодирования : x264 core 130 r2273 b3065e6
Настройки программы : cabac=1 / ref=9 / deblock=1:-2:-2 / analyse=0x3:0x133 / me=umh / subme=9 / psy=1 / psy_rd=1.00:0.00 / mixed_ref=1 / me_range=32 / chroma_me=1 / trellis=2 / 8x8dct=1 / cqm=0 / deadzone=21,11 / fast_pskip=0 / chroma_qp_offset=-2 / threads=8 / lookahead_threads=4 / sliced_threads=0 / nr=0 / decimate=1 / interlaced=0 / bluray_compat=0 / constrained_intra=0 / bframes=5 / b_pyramid=2 / b_adapt=2 / b_bias=0 / direct=1 / weightb=1 / open_gop=0 / weightp=2 / keyint=600 / keyint_min=23 / scenecut=40 / intra_refresh=0 / rc=crf / mbtree=0 / crf=16.3 / qcomp=0.60 / qpmin=0 / qpmax=69 / qpstep=4 / ip_ratio=1.40 / pb_ratio=1.30 / aq=1:1.00
Язык : English
Default : Да
Forced : Нет

Аудио
Идентификатор : 2
Формат : AC-3
Формат/Информация : Audio Coding 3
Коммерческое название : Dolby Digital
Идентификатор кодека : A_AC3
Продолжительность : 1 ч. 32 м.
Вид битрейта : Постоянный
Битрейт : 384 Кбит/сек
Каналы : 6 каналов
Channel layout : L R C LFE Ls Rs
Частота : 48,0 КГц
Частота кадров : 31,250 кадров/сек (1536 SPF)
Битовая глубина : 16 бит
Метод сжатия : С потерями
Размер потока : 253 Мбайт (8%)
Заголовок : Dub
Язык : Russian
ServiceKind/String : Complete Main
Default : Да
Forced : Нет

Текст #1
Идентификатор : 3
Формат : UTF-8
Идентификатор кодека : S_TEXT/UTF8
Идентификатор кодека/Информация : UTF-8 Plain Text
Продолжительность : 1 ч. 26 м.
Битрейт : 70 бит/сек
ElementCount : 1492
Размер потока : 44,8 Кбайт (0%)
Заголовок : Full
Язык : English
Default : Нет
Forced : Нет

Текст #2
Идентификатор : 4
Формат : UTF-8
Идентификатор кодека : S_TEXT/UTF8
Идентификатор кодека/Информация : UTF-8 Plain Text
Продолжительность : 1 ч. 28 м.
Битрейт : 80 бит/сек
ElementCount : 1782
Размер потока : 51,6 Кбайт (0%)
Заголовок : SDH
Язык : English
Default : Нет
Forced : Нет

Меню
00:00:00.000 : fr:Chapter 01
00:07:17.791 : fr:Chapter 02
00:15:19.166 : fr:Chapter 03
00:22:57.041 : fr:Chapter 04
00:29:16.541 : fr:Chapter 05
00:36:29.500 : fr:Chapter 06
00:42:55.333 : fr:Chapter 07
00:51:36.500 : fr:Chapter 08
00:58:35.041 : fr:Chapter 09
01:05:06.750 : fr:Chapter 10
01:13:05.833 : fr:Chapter 11
01:19:56.333 : fr:Chapter 12

Просьба к переливающим на другие сайты, в оформлении указывайте пожалуйста авторство группы R.G. HD-Films piratbit.org



Скачать Пламенное сердце через торрент https://i120.fastpic.org/big/2022/0601/45/5398a4581cf42539f224de9afecfb045.jpg Скачать, смотреть онлайн Пламенное сердце бесплантно в хорошем качестве Описание: С самого детства у Джорджии Нолан была только одна мечта: стать пожарным, как ее папа! К сожалению, законы того времени не ... 10 10 4
Торрент: Зарегистрирован [2022-06-01 09:17] · скачан: 160 раз
Статус: √ проверено
Размер: 2.93 GB
Как cкачать? Как скачать Пламенное сердце через торрент | UTorrent

28-11-2019 20:33  

Отключить всю рекламу на сайте

01-06-2022 11:28 Пламенное сердце Скачать торрент  

Я смотрю борьба с артами не изменилась, один Димка похоже к этому стремился (Tiberiumsun69). Сам кодировать перестал давноpiratbit.org



01-06-2022 11:43 Пламенное сердце Скачать торрент  

Ressident писал(а):

Я смотрю борьба с артами не изменилась, один Димка похоже к этому стремился (Tiberiumsun69). Сам кодировать перестал давно

Просят, я делаю, пока как то так.
Хочу Gemini Man выложить в натуральных 60fps, посмотрим что напишут.piratbit.org



01-06-2022 13:40 Пламенное сердце Скачать торрент  

Гемини глянул - кайфанул, вот с него бы сделать фильтр для обработкиpiratbit.org



01-06-2022 18:45 Пламенное сердце Скачать торрент  

ну Вы тут всех по не русски заговорили, темнемене спасибо Вам.piratbit.org



    Дорогой пользователь! Огромная просьба, поблагодарите релизера, оцените раздачу и оставьте свои комментарий, если Вы скачали Пламенное сердце через торрент бесплатно!
    Комментировать посты могут только пользователи прошедшие не сложную регистрацию
    Показать сообщения:    

    Пламенное сердце через торрент
    Скачать бесплатно Пламенное сердце
    Пламенное сердце скачать торрент
    Пламенное сердце смотреть онлайн
    Cкачать фильм Пламенное сердце бесплатно
    Пламенное сердце скачать торрент в хорошем качестве
    Пламенное сердце смотреть онлайн бесплатно в хорошем качестве


    Вы не можете начинать темы
    Вы не можете отвечать на сообщения
    Вы не можете редактировать свои сообщения
    Вы не можете удалять свои сообщения
    Вы не можете голосовать в опросах
    Вы не можете прикреплять файлы к сообщениям
    Вы можете скачивать файлы