Доктор Стрэндж

Лицензия

Добыча

MVO

Дом дракона

1 сезон

Тор

Лицензия

Мэверик

Лицензия

Там, где раки поют

MVO

Властелин колец

1 сезон

Ultimate

pack

Рекомендуем

30

Repack

ВАЖНО

ВАЖНО

Ghostwire

RePack

jed

RePack

nioh2

RePack

RDR2

RePack

NEED FOR SPEED™ PAYBACK

RePack

скачать торрент

Кинопоиск HD

Острые козырьки 6 сезон

6 сезон

FAR CRY 6

RePack

скачать торрент

Лицензия

скачать торрент

MVO

1

1 сезон

скачать торрент

1 сезон

скачать торрент

Лицензия

  

ИП Пирогова / Сезон: 5 / Серии: 1-13 из 13 (Илья Силаев) [2022, Комедия, WEBRip]

ИП Пирогова через торрент piratbit.org

Качают: 1 [ 0 KB/s ]
Размер: 4.18 GB | Добавлен: 1 мес. 3 д. назад | Торрент скачан:21 раз
Смотреть онлайн ИП Пирогова | Скачать   

06-06-2022 21:50 ИП Пирогова Скачать торрент  

ИП Пирогова
Год выпуска: 2022
Страна: Россия
Выпущено: Yellow, Black and White
Жанр: Комедия
Продолжительность: ~ 00:25:00
Перевод: Не требуется
Субтитры: отсутствуют

Режиссер: Илья Силаев

rating

В ролях: Елена Подкаминская, Данила Дунаев, Александр Панкратов-Чёрный, Александр Константинов, Кристина Кучеренко, Ксения Теплова, Елена Валюшкина, Василина Юсковец, Ян Цапник, Серафима Низовская, Наиль Абдрахманов, Сергей Погосян, Никита Беляков, Наталья Чистякова-Ионова, Алексей Агранович, Денис Клявер

Описание: Бизнес Веры Пироговой лежит в руинах: помещение опечатано, доверие клиентов подорвано. Члены семьи готовы взяться за любое дело, лишь бы немного подзаработать, но сама Вера во что бы то ни стало намерена вернуть репутацию и любимое кафе. В надежде выиграть 3 000 000 рублей и выкупить кондитерскую она участвует в кулинарном шоу «Лучший кондитер России». Однако соревнование оборачивается чередой не самых приятных сюрпризов. В личной жизни тоже все непросто: у Андрея появилась девушка Женя и Вера поневоле оказывается втянута в борьбу не только за бизнес, но и за любовь.

Качество: WEBRip
Формат: AVI

Видео: 720x400 (1.80:1), 25 fps, XviD ~1650 kbps avg, 0.229 bit/pixel
Аудио: 48.0 kHz, AC3 Dolby Digital, 2/0 (L,R) ch, ~ 192 kbps
скриншот  скриншот  скриншот  скриншот  скриншот  скриншот  

General
Complete name : D:\IP.Pirogova.S05.WEB-DLRip.25Kuzmich\IP.Pirogova.s05e01.WEB-DLRip.25Kuzmich.avi
Format : AVI
Format/Info : Audio Video Interleave
File size : 350 MiB
Duration : 26 min 28 s
Overall bit rate : 1 850 kb/s
Writing application : VirtualDubMod 1.5.10.3 | www.virtualdub-fr.org || (build 2550/release)
Writing library : VirtualDubMod build 2550/release

Video
ID : 0
Format : MPEG-4 Visual
Format profile : Advanced Simple@L5
Format settings : BVOP1
Format settings, BVOP : 1
Format settings, QPel : No
Format settings, GMC : No warppoints
Format settings, Matrix : Default (MPEG)
Codec ID : XVID
Codec ID/Hint : XviD
Duration : 26 min 28 s
Bit rate : 1 648 kb/s
Width : 720 pixels
Height : 400 pixels
Display aspect ratio : 16:9
Frame rate : 25.000 FPS
Color space : YUV
Chroma subsampling : 4:2:0
Bit depth : 8 bits
Scan type : Progressive
Compression mode : Lossy
Bits/(Pixel*Frame) : 0.229
Stream size : 312 MiB (89%)
Writing library : XviD 73

Audio
ID : 1
Format : AC-3
Format/Info : Audio Coding 3
Codec ID : 2000
Duration : 26 min 28 s
Bit rate mode : Constant
Bit rate : 192 kb/s
Channel(s) : 2 channels
Channel positions : Front: L R
Sampling rate : 48.0 kHz
Frame rate : 31.250 FPS (1536 SPF)
Bit depth : 16 bits
Compression mode : Lossy
Stream size : 36.4 MiB (10%)
Alignment : Split accross interleaves
Interleave, duration : 40 ms (1.00 video frame)
Interleave, preload duratio : 500 ms
Service kind : Complete Main

Когда раздача ведётся путём добавления новых серий, при каждом добавлении создётся новый торрент. Чтобы начать докачку новой серии, пользователям необходимо сделать следующее:
(1) остановить скачивание,
(2) удалить старый торрент у себя из клиента (старые серии удалять не надо),
(3) скачать новый торрент и запустить его у себя в клиенте вместо старого, при этом указать клиенту путь в старую папку, куда и должно происходить скачивание новых серий.
Ваш клиент при этом должен произвести хеширование (проверку) старой папки (если не производит сам - помогите ему сделать это), и будет докачивать только те серии, которых у вас ещё нет. Старые серии при этом не удаляются, а продолжают раздаваться!
Eсли вы уже удалили старые серии, то предотвратить повторную закачку старых серий можно, отжав галочку в соответсвующих местах при запуске нового торрента. По возможности, желательно не удалять старые серии как можно дольше, чтобы релизер не столько продолжал раздавать старые серии, а смог сконцентрироваться на новых.



Скачать ИП Пирогова через торрент https://i120.fastpic.org/big/2022/0607/da/4d12442106f857f5cb756e2f88cf7ada.jpg Скачать, смотреть онлайн ИП Пирогова бесплантно в хорошем качестве Описание: Бизнес Веры Пироговой лежит в руинах: помещение опечатано, доверие клиентов подорвано. Члены семьи готовы взяться за любое дело, ... 7.3 10 12
Торрент: Зарегистрирован [2022-08-30 02:49] · скачан: 21 раз
Статус: √ проверено
Размер: 4.18 GB
Как cкачать? Как скачать ИП Пирогова через торрент | UTorrent

% Раздел Тема Автор DL S | L
Наши сериалы [ 3.95 GB ] ИП Пирогова / Сезон: 5 / Серии: 1-13 из 13 | | WEBRip-AVC bober100 Скачать
5 | 1
Наши сериалы [ 10.26 GB ] ИП Пирогова / Сезон: 5 / Серии: 1-13 из 13 | | 1080p bober100 Скачать
8 | 0

28-11-2019 20:33  

Отключить вcю реклaмy на сайте

    Дорогой пользователь! Огромная просьба, поблагодарите релизера, оцените раздачу и оставьте свои комментарий, если Вы скачали ИП Пирогова через торрент бесплатно!!
    Комментировать посты могут только пользователи прошедшие не сложную регистрацию
    Показать сообщения:    


    ИП Пирогова через торрент
    Скачать бесплатно ИП Пирогова
    ИП Пирогова скачать торрент
    ИП Пирогова смотреть онлайн
    Cкачать фильм ИП Пирогова бесплатно
    ИП Пирогова скачать торрент в хорошем качестве
    ИП Пирогова смотреть онлайн бесплатно в хорошем качестве
    Вы не можете начинать темы
    Вы не можете отвечать на сообщения
    Вы не можете редактировать свои сообщения
    Вы не можете удалять свои сообщения
    Вы не можете голосовать в опросах
    Вы не можете прикреплять файлы к сообщениям
    Вы можете скачивать файлы