Доктор Стрэндж

Лицензия

Добыча

MVO

Дом дракона

1 сезон

Тор

Лицензия

Мэверик

Лицензия

Там, где раки поют

MVO

Властелин колец

1 сезон

Ultimate

pack

Рекомендуем

30

Repack

ВАЖНО

ВАЖНО

Ghostwire

RePack

jed

RePack

nioh2

RePack

RDR2

RePack

NEED FOR SPEED™ PAYBACK

RePack

скачать торрент

Кинопоиск HD

Острые козырьки 6 сезон

6 сезон

FAR CRY 6

RePack

скачать торрент

Лицензия

скачать торрент

MVO

1

1 сезон

скачать торрент

1 сезон

скачать торрент

Лицензия

  

ИП Пирогова / Сезон: 5 / Серии: 1-13 из 13 (Илья Силаев) [2022, Комедия, WEBRip-AVC]

ИП Пирогова через торрент piratbit.org

Раздают: 3 [ 385 KB/s ] Качают: 1 [ 0 KB/s ]
Размер: 3.95 GB | Добавлен: 1 мес. 2 д. назад | Торрент скачан:26 раз
Смотреть онлайн ИП Пирогова | Скачать   

07-06-2022 16:30 ИП Пирогова Скачать торрент  

ИП Пирогова
Год выпуска: 2022
Страна: Россия
Выпущено: Yellow, Black and White
Жанр: Комедия
Продолжительность: ~ 00:25:00
Перевод: Не требуется
Субтитры: отсутствуют

Режиссер: Илья Силаев

rating

В ролях: Елена Подкаминская, Данила Дунаев, Александр Панкратов-Чёрный, Александр Константинов, Кристина Кучеренко, Ксения Теплова, Елена Валюшкина, Василина Юсковец, Ян Цапник, Серафима Низовская, Наиль Абдрахманов, Сергей Погосян, Никита Беляков, Наталья Чистякова-Ионова, Алексей Агранович, Денис Клявер

Описание: Бизнес Веры Пироговой лежит в руинах: помещение опечатано, доверие клиентов подорвано. Члены семьи готовы взяться за любое дело, лишь бы немного подзаработать, но сама Вера во что бы то ни стало намерена вернуть репутацию и любимое кафе. В надежде выиграть 3 000 000 рублей и выкупить кондитерскую она участвует в кулинарном шоу «Лучший кондитер России». Однако соревнование оборачивается чередой не самых приятных сюрпризов. В личной жизни тоже все непросто: у Андрея появилась девушка Женя и Вера поневоле оказывается втянута в борьбу не только за бизнес, но и за любовь.

Качество: WEBRip-AVC
Формат: MKV

Видео: MPEG-4 AVC, ~ 1600 Кбит/с, 1024x576, 25 кадр/с
Аудио: 48.0 kHz, AC3 Dolby Digital, 2/0 (L,R) ch, ~ 192 kbps

General
Unique ID : 206828844184652027223674480478105125621 (0x9B99C953FD372DFF9EABA348F06042F5)
Complete name : F:\ИП Пирогова.S05.(2022).WEBRip.(AVC).Files-x\01.ИП Пирогова.S05.(2022).WEBRip.(AVC).by.Серый1779.Files-x.mkv
Format : Matroska
Format version : Version 2
File size : 342 MiB
Duration : 26 min 38 s
Overall bit rate : 1 794 kb/s
Encoded date : UTC 2022-06-07 15:04:54
Writing application : mkvmerge v7.8.0 ('River Man') 32bit built on Apr 3 2015 12:11:22
Writing library : libebml v1.3.1 + libmatroska v1.4.2

Video
ID : 1
Format : AVC
Format/Info : Advanced Video Codec
Format profile : High@L4.1
Format settings : CABAC / 9 Ref Frames
Format settings, CABAC : Yes
Format settings, RefFrames : 9 frames
Codec ID : V_MPEG4/ISO/AVC
Duration : 26 min 38 s
Bit rate : 1 600 kb/s
Width : 1 024 pixels
Height : 576 pixels
Display aspect ratio : 16:9
Frame rate mode : Constant
Frame rate : 25.000 FPS
Color space : YUV
Chroma subsampling : 4:2:0
Bit depth : 8 bits
Scan type : Progressive
Bits/(Pixel*Frame) : 0.109
Stream size : 298 MiB (87%)
Writing library : x264 core 146 r2538 121396c
Encoding settings : cabac=1 / ref=9 / deblock=1:-2:-1 / analyse=0x3:0x133 / me=umh / subme=9 / psy=1 / psy_rd=1.00:0.15 / mixed_ref=1 / me_range=32 / chroma_me=1 / trellis=2 / 8x8dct=1 / cqm=0 / deadzone=21,11 / fast_pskip=0 / chroma_qp_offset=-3 / threads=18 / lookahead_threads=3 / sliced_threads=0 / nr=0 / decimate=1 / interlaced=0 / bluray_compat=0 / constrained_intra=0 / bframes=9 / b_pyramid=2 / b_adapt=2 / b_bias=0 / direct=1 / weightb=1 / open_gop=0 / weightp=2 / keyint=250 / keyint_min=25 / scenecut=40 / intra_refresh=0 / rc=2pass / mbtree=0 / bitrate=1600 / ratetol=1.0 / qcomp=0.60 / qpmin=0 / qpmax=69 / qpstep=4 / cplxblur=20.0 / qblur=0.5 / ip_ratio=1.40 / pb_ratio=1.30 / aq=2:1.00
Default : Yes
Forced : No
Color range : Limited
Color primaries : BT.709
Transfer characteristics : BT.709
Matrix coefficients : BT.709

Audio
ID : 2
Format : AC-3
Format/Info : Audio Coding 3
Format settings, Endianness : Big
Codec ID : A_AC3
Duration : 26 min 38 s
Bit rate mode : Constant
Bit rate : 192 kb/s
Channel(s) : 2 channels
Channel positions : Front: L R
Sampling rate : 48.0 kHz
Frame rate : 31.250 FPS (1536 SPF)
Bit depth : 16 bits
Compression mode : Lossy
Stream size : 36.6 MiB (11%)
Service kind : Complete Main
Default : Yes
Forced : No

Когда раздача ведётся путём добавления новых серий, при каждом добавлении создётся новый торрент. Чтобы начать докачку новой серии, пользователям необходимо сделать следующее:
(1) остановить скачивание,
(2) удалить старый торрент у себя из клиента (старые серии удалять не надо),
(3) скачать новый торрент и запустить его у себя в клиенте вместо старого, при этом указать клиенту путь в старую папку, куда и должно происходить скачивание новых серий.
Ваш клиент при этом должен произвести хеширование (проверку) старой папки (если не производит сам - помогите ему сделать это), и будет докачивать только те серии, которых у вас ещё нет. Старые серии при этом не удаляются, а продолжают раздаваться!
Eсли вы уже удалили старые серии, то предотвратить повторную закачку старых серий можно, отжав галочку в соответсвующих местах при запуске нового торрента. По возможности, желательно не удалять старые серии как можно дольше, чтобы релизер не столько продолжал раздавать старые серии, а смог сконцентрироваться на новых.



Скачать ИП Пирогова через торрент https://i120.fastpic.org/big/2022/0607/da/4d12442106f857f5cb756e2f88cf7ada.jpg Скачать, смотреть онлайн ИП Пирогова бесплантно в хорошем качестве Описание: Бизнес Веры Пироговой лежит в руинах: помещение опечатано, доверие клиентов подорвано. Члены семьи готовы взяться за любое дело, ... 10 10 5
Торрент: Зарегистрирован [2022-08-31 05:58] · скачан: 26 раз
Статус: √ проверено
Размер: 3.95 GB
Как cкачать? Как скачать ИП Пирогова через торрент | UTorrent

% Раздел Тема Автор DL S | L
Наши сериалы [ 10.26 GB ] ИП Пирогова / Сезон: 5 / Серии: 1-13 из 13 | | 1080p bober100 Скачать
8 | 1
Наши сериалы [ 4.18 GB ] ИП Пирогова / Сезон: 5 / Серии: 1-13 из 13 | | WEBRip bober100 Скачать
1 | 2

28-11-2019 20:33  

Отключить вcю реклaмy на сайте

    Дорогой пользователь! Огромная просьба, поблагодарите релизера, оцените раздачу и оставьте свои комментарий, если Вы скачали ИП Пирогова через торрент бесплатно!!
    Комментировать посты могут только пользователи прошедшие не сложную регистрацию
    Показать сообщения:    


    ИП Пирогова через торрент
    Скачать бесплатно ИП Пирогова
    ИП Пирогова скачать торрент
    ИП Пирогова смотреть онлайн
    Cкачать фильм ИП Пирогова бесплатно
    ИП Пирогова скачать торрент в хорошем качестве
    ИП Пирогова смотреть онлайн бесплатно в хорошем качестве
    Вы не можете начинать темы
    Вы не можете отвечать на сообщения
    Вы не можете редактировать свои сообщения
    Вы не можете удалять свои сообщения
    Вы не можете голосовать в опросах
    Вы не можете прикреплять файлы к сообщениям
    Вы можете скачивать файлы