Всегда рабочее зеркало без VPN и Proxy просто перед .vidak.icu напиши любое слово или цифру, Пример http://ijay.vidak.icu

MVO

Лицензия

1 сезон

1

1 сезон

iTunes

1 сезон

13

1 сезон

Deluxe

pack

Рекомендуем

Пиратка

30

ВАЖНО

RePack

MK11

RePack

jed

RePack

fifa19

RePack

RDR2

RePack

NEED FOR SPEED™ PAYBACK

Кинопоиск HD

6 сезон

 Острые козырьки 6 сезон

Все сериалы

все сериалы на PB.wtf

RePack

FAR CRY 5

Anonymous, нам критически не хватает 2100 руб. на оплату серверов и переферии за МАЙ, помоги нам пожалуйста, вся надежда только на тебя. В благодарность мы отключим тебе всю рекламу на сайте!

×
  
Magnet ссылка

Хроники Риддика / The Chronicles of Riddick (Дэвид Туи) [2004 г., Фантастика, приключения, WEB-DLRip 720p / 60 FPS, Дубляж] Open Matte от R.G. HD-Films piratbit.org

Хроники Риддика через торрент piratbit.org

Раздают: 10 [ 3 MB/s ]
Размер: 5.32 GB | Добавлен: 5 д. назад | Торрент скачан:49 раз
Смотреть онлайн Хроники Риддика | Скачать    Ребята, помогите собрать деньги на оплату серверов!!!

21-06-2022 09:17 Хроники Риддика Скачать торрент  

Хроники Риддика / The Chronicles of Riddick
Год выпуска: 2004
Страна: США
Жанр: Фантастика, приключения
Продолжительность: 01:59:11
Перевод: Дубляж | Мосфильм-Мастер
Субтитры: русские, английские

Режиссер: Дэвид Туи

Бюджет: $105 000 000
Премьера в мире: 3 июня 2004

rating

В ролях: Вин Дизель, Колм Фиор, Тэнди Ньютон, Джуди Денч, Карл Урбан, Алекса Давалос, Лайнас Роуч, Йорик ван Вагенинген, Ник Чинланд, Кит Дэвид

Описание: «Хроники Риддика» ("The Cronicles of Riddick") — продолжение картины «Кромешная тьма» ("Pitch Black"), одного из самых нашумевших фильмов в жанре dark space opera. Культовый Вин Дизель в очках и с неизменной лысиной продолжает повествовать замечательную биографию космического маньяка по имени Риддик, который должен непременно спаси Вселенную.
XXVI век. Риддик, галактический антигерой, вечный преступник со своим оригинальным взглядом на жизнь, вновь бежит из космической колонии, чтобы оказаться на планете Гелион, где сокрыта тайна его происхождения. Поминутно сталкиваясь с охотниками за головами и прочей внеземной опасностью, Риддик в компании с новыми друзьями противостоит жестокому Лорду Маршалу, предводителю Нового Крестового похода против всего живого и мертвого во Вселенной.


Доп. информация: Open Matte версия - имеет большее наполнение кадра - чем BLU-RAY.

Периодически появляется логотип канала STARZ


Качество: WEB-DLRip 720p / 60 FPS
Формат: MKV
Видео кодек: H.264
Аудио кодек: AC3
Видео: x264, 1280 x 720 ( 16:9 ), 6002 kbps, 60,000 fps, ( 0.109 bpp)
Аудио#1: Русский, AC-3, 48.0 KHz, 6 ch, 384 Kbps
Релиз от: Автор рипа: slaventi-69
x264 [info]: profile High, level 4.1
x264 [info]: frame I:2338 Avg QP:15.94 size: 85982
x264 [info]: frame P:101468 Avg QP:16.77 size: 27284
x264 [info]: frame B:325265 Avg QP:19.36 size: 7366
x264 [info]: consecutive B-frames: 2.2% 3.2% 9.3% 18.5% 46.9% 20.0%


Общее
Уникальный идентификатор : 296926916201468432542297774013798435768 (0xDF620B3E63042CE73037CB3CDB844BB8)
Полное имя : G:\60 FPS\The.Chronicles.of.Riddick.(2004).WEB-DLRip.720p.(60 Fps).(Open Matte).mkv
Формат : Matroska
Версия формата : Version 4
Размер файла : 5,32 Гбайт
Продолжительность : 1 ч. 59 м.
Общий поток : 6390 Кбит/сек
Название фильма : Хроники Риддика / The Chronicles of Riddick (2004) WEB-DLRip 720p (60 Fps) | Open Matte
Дата кодирования : UTC 2022-06-20 13:18:05
Программа кодирования : mkvmerge v25.0.0 ('Prog Noir') 64-bit
Библиотека кодирования : libebml v1.3.6 + libmatroska v1.4.9

Видео
Идентификатор : 1
Формат : AVC
Формат/Информация : Advanced Video Codec
Профиль формата : High@L4.1
Настройки формата : CABAC / 9 Ref Frames
Параметр CABAC формата : Да
Параметр RefFrames формата : 9 кадров
Идентификатор кодека : V_MPEG4/ISO/AVC
Продолжительность : 1 ч. 59 м.
Битрейт : 6002 Кбит/сек
Ширина : 1280 пикселей
Высота : 720 пикселей
Соотношение сторон : 16:9
Режим частоты кадров : Постоянный
Частота кадров : 60,000 кадров/сек
Цветовое пространство : YUV
Субдискретизация насыщенности : 4:2:0
Битовая глубина : 8 бит
Тип развёртки : Прогрессивная
Бит/(Пиксели*Кадры) : 0.109
Размер потока : 5,00 Гбайт (94%)
Заголовок : slaventi-69 ( R.G. HD-Films | 60 fps )
Библиотека кодирования : x264 core 130 r2273 b3065e6
Настройки программы : cabac=1 / ref=9 / deblock=1:-3:-3 / analyse=0x3:0x133 / me=umh / subme=9 / psy=1 / psy_rd=1.00:0.00 / mixed_ref=1 / me_range=32 / chroma_me=1 / trellis=2 / 8x8dct=1 / cqm=0 / deadzone=21,11 / fast_pskip=0 / chroma_qp_offset=-2 / threads=8 / lookahead_threads=4 / sliced_threads=0 / nr=0 / decimate=1 / interlaced=0 / bluray_compat=0 / constrained_intra=0 / bframes=5 / b_pyramid=2 / b_adapt=2 / b_bias=0 / direct=1 / weightb=1 / open_gop=0 / weightp=2 / keyint=600 / keyint_min=23 / scenecut=40 / intra_refresh=0 / rc=crf / mbtree=0 / crf=16.7 / qcomp=0.60 / qpmin=0 / qpmax=69 / qpstep=4 / ip_ratio=1.40 / pb_ratio=1.30 / aq=1:1.00
Язык : English
Default : Да
Forced : Нет

Аудио
Идентификатор : 2
Формат : AC-3
Формат/Информация : Audio Coding 3
Коммерческое название : Dolby Digital
Идентификатор кодека : A_AC3
Продолжительность : 1 ч. 59 м.
Вид битрейта : Постоянный
Битрейт : 384 Кбит/сек
Каналы : 6 каналов
Channel layout : L R C LFE Ls Rs
Частота : 48,0 КГц
Частота кадров : 31,250 кадров/сек (1536 SPF)
Битовая глубина : 16 бит
Метод сжатия : С потерями
Размер потока : 327 Мбайт (6%)
Заголовок : Dub [Мосфильм-Мастер]
Язык : Russian
ServiceKind/String : Complete Main
Default : Да
Forced : Нет

Текст #1
Идентификатор : 3
Формат : UTF-8
Идентификатор кодека : S_TEXT/UTF8
Идентификатор кодека/Информация : UTF-8 Plain Text
Продолжительность : 1 ч. 48 м.
Битрейт : 51 бит/сек
ElementCount : 669
Размер потока : 40,5 Кбайт (0%)
Язык : Russian
Default : Нет
Forced : Нет

Текст #2
Идентификатор : 4
Формат : UTF-8
Идентификатор кодека : S_TEXT/UTF8
Идентификатор кодека/Информация : UTF-8 Plain Text
Продолжительность : 1 ч. 48 м.
Битрейт : 33 бит/сек
ElementCount : 898
Размер потока : 26,5 Кбайт (0%)
Язык : English
Default : Нет
Forced : Нет

Текст #3
Идентификатор : 5
Формат : UTF-8
Идентификатор кодека : S_TEXT/UTF8
Идентификатор кодека/Информация : UTF-8 Plain Text
Продолжительность : 1 ч. 48 м.
Битрейт : 35 бит/сек
ElementCount : 962
Размер потока : 28,3 Кбайт (0%)
Заголовок : SDH
Язык : English
Default : Нет
Forced : Нет

Меню
00:00:00.000 : en:Глава 01
00:10:00.000 : en:Глава 02
00:20:00.000 : en:Глава 03
00:30:00.000 : en:Глава 04
00:40:00.000 : en:Глава 05
00:50:00.000 : en:Глава 06
01:00:00.000 : en:Глава 07
01:10:00.000 : en:Глава 08
01:20:00.000 : en:Глава 09
01:30:00.000 : en:Глава 10
01:40:00.000 : en:Глава 11
01:50:00.000 : en:Глава 12

Просьба к переливающим на другие сайты, в оформлении указывайте пожалуйста авторство группы R.G. HD-Films piratbit.org



Скачать Хроники Риддика через торрент http://i100.fastpic.ru/big/2018/0106/dc/0082b0431e499b12c7ad706364d3bcdc.png Скачать, смотреть онлайн Хроники Риддика бесплантно в хорошем качестве Описание: «Хроники Риддика» ("The Cronicles of Riddick") — продолжение картины «Кромешная тьма» ("Pitch Black"), одного из самых нашумевших ... 10 10 8
Info! Золотая раздача, скачанное не засчитывается.
Торрент: Зарегистрирован [2022-06-21 09:17] · скачан: 49 раз
Статус: √ проверено
Размер: 5.32 GB
Как cкачать? Как скачать Хроники Риддика через торрент | UTorrent



Последний раз редактировалось: slaventi-69 (2022-06-22 07:50), всего редактировалось 1 раз

28-11-2019 20:33  

Отключить всю рекламу на сайте

23-06-2022 08:24 Хроники Риддика Скачать торрент  

ждем Черную дыру 1999 г.piratbit.org



24-06-2022 09:10 Хроники Риддика Скачать торрент  

Раздача стала золотой благодаря:
Chuvackk(5000)

Спасибо за Золото.

wasp писал(а):

ждем Черную дыру 1999 г.

Уже есть. Скоро будет Риддик в Open Mattepiratbit.org



    Дорогой пользователь! Огромная просьба, поблагодарите релизера, оцените раздачу и оставьте свои комментарий, если Вы скачали Хроники Риддика через торрент бесплатно!
    Комментировать посты могут только пользователи прошедшие не сложную регистрацию
    Показать сообщения:    

    Хроники Риддика через торрент
    Скачать бесплатно Хроники Риддика
    Хроники Риддика скачать торрент
    Хроники Риддика смотреть онлайн
    Cкачать фильм Хроники Риддика бесплатно
    Хроники Риддика скачать торрент в хорошем качестве
    Хроники Риддика смотреть онлайн бесплатно в хорошем качестве


    Вы не можете начинать темы
    Вы не можете отвечать на сообщения
    Вы не можете редактировать свои сообщения
    Вы не можете удалять свои сообщения
    Вы не можете голосовать в опросах
    Вы не можете прикреплять файлы к сообщениям
    Вы можете скачивать файлы