Всегда рабочее зеркало без VPN и Proxy просто перед .vidak.icu напиши любое слово или цифру, Пример http://87jz.vidak.icu

MVO

Лицензия

1 сезон

1

1 сезон

iTunes

1 сезон

13

1 сезон

Deluxe

pack

Рекомендуем

Пиратка

30

ВАЖНО

RePack

MK11

RePack

jed

RePack

fifa19

RePack

RDR2

RePack

NEED FOR SPEED™ PAYBACK

Кинопоиск HD

6 сезон

 Острые козырьки 6 сезон

Все сериалы

все сериалы на PB.wtf

RePack

FAR CRY 5

Anonymous, нам критически не хватает 2100 руб. на оплату серверов и переферии за МАЙ, помоги нам пожалуйста, вся надежда только на тебя. В благодарность мы отключим тебе всю рекламу на сайте!

×
  
Magnet ссылка

Отец невесты / Father of the Bride (Гари Алазраки) [2022, Мелодрама, комедия, фэнтези, WEB-DLRip-AVC] MVO [Jaskier] piratbit.org

Отец невесты через торрент piratbit.org

Раздают: 8 [ 2 MB/s ]
Размер: 2.5 GB | Добавлен: 4 д. назад | Торрент скачан:31 раз
Смотреть онлайн Отец невесты | Скачать    Ребята, помогите собрать деньги на оплату серверов!!!

22-06-2022 16:24 Отец невесты Скачать торрент  

Отец невесты
Father of the Bride

Год выпуска: 2022
Страна: США
Выпущено: LD Entertainment, Plan B Entertainment, Warner Bros.
Жанр: Мелодрама, комедия, фэнтези
Продолжительность: 01:57:34
Перевод: Профессиональный (многоголосый) | Jaskier
Субтитры: Английские

Режиссер: Гари Алазраки

rating

В ролях: Адриа Архона, Изабела Мерсед, Лора Хэрринг, Энди Гарсиа, Диего Бонета, Хлоя Файнмен, Энрике Мурсиано, Глория Эстефан, Тайлер Кей Уитли, Джеймс Дж Зито III

Описание: История об отце, который пытается смириться с предстоящей свадьбой дочери. Фильм показывает происходящее сквозь призму разнообразных отношений в большой кубино-американской семье.

Качество: WEB-DLRip-AVC
Формат: MKV

Видео: MPEG-4 AVC, 1024x428 at 23.976 fps, x264@L4.1, ~2277 kbps
Аудио#1: 48 kHz, AC3 Dolby Digital, 3/2 (L, C, R, l, r) + LFE ch, ~384 Kbps
Аудио#2: 48 kHz, AC3 Dolby Digital, 3/2 (L, C, R, l, r) + LFE ch, ~384 Kbps
скриншот  скриншот  скриншот  скриншот  

x264 [info]: frame I:1618 Avg QP:18.35 size: 74178
x264 [info]: frame P:40945 Avg QP:20.06 size: 23568
x264 [info]: frame B:126587 Avg QP:21.43 size: 7294

General
Unique ID : 336710534671883229201879619157125052652 (0xFD501712DC01D53390456EA903B538EC)
Complete name : L:Father.of.the.Bride.2022.WEB-DLRip.x264.seleZen.mkv
Format : Matroska
Format version : Version 4
File size : 2.50 GiB
Duration : 1 h 57 min
Overall bit rate : 3 048 kb/s
Movie name : Father.of.the.Bride.2022.WEB-DLRip.x264.seleZen
Encoded date : UTC 2022-06-21 10:24:34
Writing application : mkvmerge v63.0.0 ('Everything') 64-bit
Writing library : libebml v1.4.2 + libmatroska v1.6.4
Cover : Yes
Attachments : cover.jpg / small_cover.jpg

Video
ID : 1
Format : AVC
Format/Info : Advanced Video Codec
Format profile : High@L4.1
Format settings : CABAC / 12 Ref Frames
Format settings, CABAC : Yes
Format settings, Reference : 12 frames
Codec ID : V_MPEG4/ISO/AVC
Duration : 1 h 57 min
Bit rate : 2 277 kb/s
Width : 1 024 pixels
Height : 428 pixels
Display aspect ratio : 2.40:1
Frame rate mode : Constant
Frame rate : 23.976 (24000/1001) FPS
Color space : YUV
Chroma subsampling : 4:2:0
Bit depth : 8 bits
Scan type : Progressive
Bits/(Pixel*Frame) : 0.217
Stream size : 1.87 GiB (75%)
Title : -=DoMiNo=-
Writing library : x264 core 164 r3095 baee400
Encoding settings : cabac=1 / ref=12 / deblock=1:-2:-2 / analyse=0x3:0x133 / me=umh / subme=10 / psy=1 / psy_rd=1.05:0.15 / mixed_ref=1 / me_range=32 / chroma_me=1 / trellis=2 / 8x8dct=1 / cqm=0 / deadzone=21,11 / fast_pskip=0 / chroma_qp_offset=-3 / threads=17 / lookahead_threads=3 / sliced_threads=0 / nr=0 / decimate=1 / interlaced=0 / bluray_compat=0 / constrained_intra=0 / bframes=10 / b_pyramid=2 / b_adapt=2 / b_bias=0 / direct=1 / weightb=1 / open_gop=0 / weightp=2 / keyint=250 / keyint_min=23 / scenecut=40 / intra_refresh=0 / rc_lookahead=60 / rc=crf / mbtree=0 / crf=18.5 / qcomp=0.65 / qpmin=0 / qpmax=69 / qpstep=4 / vbv_maxrate=50000 / vbv_bufsize=62500 / crf_max=0.0 / nal_hrd=none / filler=0 / ip_ratio=1.35 / pb_ratio=1.25 / aq=3:0.80
Language : English
Default : Yes
Forced : No
Color range : Limited
Color primaries : BT.709
Transfer characteristics : BT.709
Matrix coefficients : BT.709

Audio #1
ID : 2
Format : AC-3
Format/Info : Audio Coding 3
Commercial name : Dolby Digital
Codec ID : A_AC3
Duration : 1 h 57 min
Bit rate mode : Constant
Bit rate : 384 kb/s
Channel(s) : 6 channels
Channel layout : L R C LFE Ls Rs
Sampling rate : 48.0 kHz
Frame rate : 31.250 FPS (1536 SPF)
Compression mode : Lossy
Stream size : 323 MiB (13%)
Title : MVO_[Jaskier]
Language : Russian
Service kind : Complete Main
Default : Yes
Forced : No

Audio #2
ID : 3
Format : AC-3
Format/Info : Audio Coding 3
Commercial name : Dolby Digital
Codec ID : A_AC3
Duration : 1 h 57 min
Bit rate mode : Constant
Bit rate : 384 kb/s
Channel(s) : 6 channels
Channel layout : L R C LFE Ls Rs
Sampling rate : 48.0 kHz
Frame rate : 31.250 FPS (1536 SPF)
Compression mode : Lossy
Stream size : 323 MiB (13%)
Title : Original
Language : English
Service kind : Complete Main
Default : No
Forced : No

Text #1
ID : 4
Format : UTF-8
Codec ID : S_TEXT/UTF8
Codec ID/Info : UTF-8 Plain Text
Duration : 1 h 16 min
Bit rate : 3 b/s
Count of elements : 80
Stream size : 2.07 KiB (0%)
Title : English [Forced]
Language : English
Default : No
Forced : No

Text #2
ID : 5
Format : UTF-8
Codec ID : S_TEXT/UTF8
Codec ID/Info : UTF-8 Plain Text
Duration : 1 h 51 min
Bit rate : 87 b/s
Count of elements : 2222
Stream size : 71.3 KiB (0%)
Title : English [SDH]
Language : English
Default : No
Forced : No

piratbit.org



Скачать Отец невесты через торрент https://i120.fastpic.org/big/2022/0619/a4/b2db82b571bb0e48fbd97c3d19f3fba4.jpg Скачать, смотреть онлайн Отец невесты бесплантно в хорошем качестве Описание: История об отце, который пытается смириться с предстоящей свадьбой дочери. Фильм показывает происходящее сквозь призму ... 7.8 10 4
Торрент: Зарегистрирован [2022-06-22 16:24] · скачан: 31 раз
Статус: √ проверено
Размер: 2.5 GB
Как cкачать? Как скачать Отец невесты через торрент | UTorrent

% Раздел Тема Автор DL S | L
Фильмы 2022 [DVDrip, WEB-DLRip, HDrip] (DUB, MVO) [ 1.47 GB ] Отец невесты / Father of the Bride [2022 Мело WEB-DLRip] MVO [Jaskier] bober100 Скачать
7 | 0
Фильмы с авторской озвучкой [ 2.07 GB ] Отец невесты / Father of the Bride [1991 BDRip] 3x [AVO] killermax2013 Скачать
2 | 0
Фильмы [HD 720p, 1080p] (Хороший звук DUB, MVO) [ 15.27 GB ] Отец невесты 2 / Father of the Bride Part II [1995 BDRip 1080p by msltel] 3 x MVO AVO VO msltel Скачать
1 | 0
Фильмы [HD 720p, 1080p] (Хороший звук DUB, MVO) [ 5.59 GB ] Отец невесты 2 / Father of the Bride Part II [1995 BDRip 720p by msltel] 3 x MVO AVO VO msltel Скачать
1 | 0
Фильмы до 2000 г. [ 1.46 GB ] Отец невесты 2 / Father of the Bride Part II [1995 HDRip MVO лицензия] Dean24 Скачать
1 | 0
Фильмы до 2000 г. [ 1.46 GB ] Отец невесты / Father of the Bride [1991 HDRip MVO лицензия] Dean24 Скачать
1 | 0

28-11-2019 20:33  

Отключить всю рекламу на сайте

    Дорогой пользователь! Огромная просьба, поблагодарите релизера, оцените раздачу и оставьте свои комментарий, если Вы скачали Отец невесты через торрент бесплатно!
    Комментировать посты могут только пользователи прошедшие не сложную регистрацию
    Показать сообщения:    

    Отец невесты через торрент
    Скачать бесплатно Отец невесты
    Отец невесты скачать торрент
    Отец невесты смотреть онлайн
    Cкачать фильм Отец невесты бесплатно
    Отец невесты скачать торрент в хорошем качестве
    Отец невесты смотреть онлайн бесплатно в хорошем качестве


    Вы можете начинать темы
    Вы можете отвечать на сообщения
    Вы не можете редактировать свои сообщения
    Вы не можете удалять свои сообщения
    Вы не можете голосовать в опросах
    Вы не можете прикреплять файлы к сообщениям
    Вы можете скачивать файлы