Всегда рабочее зеркало без VPN и Proxy просто перед .vidak.icu напиши любое слово или цифру, Пример http://oe4q.vidak.icu

MVO

Лицензия

1 сезон

1

1 сезон

iTunes

1 сезон

13

1 сезон

Deluxe

pack

Рекомендуем

Пиратка

30

ВАЖНО

RePack

MK11

RePack

jed

RePack

fifa19

RePack

RDR2

RePack

NEED FOR SPEED™ PAYBACK

Кинопоиск HD

6 сезон

 Острые козырьки 6 сезон

Все сериалы

все сериалы на PB.wtf

RePack

FAR CRY 5

Anonymous, нам критически не хватает 2100 руб. на оплату серверов и переферии за МАЙ, помоги нам пожалуйста, вся надежда только на тебя. В благодарность мы отключим тебе всю рекламу на сайте!

×
  
Magnet ссылка

Мегрэ и таинственная девушка / Maigret (Патрис Леконт) [2022, Детектив, криминал, BDRip 720p] DUB [СиПиАй Филмз / CPI Films] piratbit.org

Мегрэ и таинственная девушка через торрент piratbit.org

Раздают: 12 [ 572 KB/s ]
Размер: 4.64 GB | Добавлен: 2 д. 9 ч. назад | Торрент скачан:88 раз
Смотреть онлайн Мегрэ и таинственная девушка | Скачать    Ребята, помогите собрать деньги на оплату серверов!!!

22-06-2022 21:56 Мегрэ и таинственная девушка Скачать торрент  

Мегрэ и таинственная девушка
Maigret

Год выпуска: 2022
Страна: Франция, Бельгия
Студия: Canal+ [fr], Ciné, F Comme Film
Жанр: Детектив, криминал
Продолжительность: 01:28:19
Перевод: Дублированный | СиПиАй Филмз / CPI Films
Субтитры: Французские

Режиссер: Патрис Леконт

rating

В ролях: Жерар Депардье, Аврора Клеман, Мелани Бернье, Энн Лорье, Клара Антунс, Джон Сехил, Норберт Феррер, Жад Лабесте, Бертран Понсе

Описание: Однажды утром в самом центре Парижа находят тело девушки, одетой в вечернее платье. Рядом с красавицей не обнаружено ни сумочки, ни документов. Легендарный комиссар Мегрэ должен разобраться, что же случилось с несчастной.

Качество: BDRip 720p
Формат: MKV

Видео: MPEG-4 AVC, 1280x534, 6000 Kbit/s, 24.000 fps
Аудио #01: 48 kHz, AC3, 5.1, 448 Kbps | Дублированный | СиПиАй Филмз / CPI Films | RUS |
Аудио #02: 48 kHz, E-AC3, 5.1, 448 Kbps | Дублированный | СиПиАй Филмз / CPI Films | RUS |
Аудио #03: 48 kHz, AC3, 5.1, 640 Kbps | Оригинал | FRE |
скриншот  скриншот  скриншот  скриншот  скриншот  

General
Unique ID : 213681202352608022490906045416599243193 (0xA0C180AB7729C328C666D73EEDECC9B9)
Complete name : D:\Video1\Maigret.2022.BDRip.720p.seleZen.mkv
Format : Matroska
Format version : Version 4
File size : 4.64 GiB
Duration : 1 h 28 min
Overall bit rate : 7 526 kb/s
Movie name : Maigret 2022 from seleZen
Encoded date : UTC 2022-06-22 21:37:45
Writing application : mkvmerge v59.0.0 ('Shining Star') 64-bit
Writing library : libebml v1.4.2 + libmatroska v1.6.4

Video
ID : 1
Format : AVC
Format/Info : Advanced Video Codec
Format profile : High@L4.1
Format settings : CABAC / 12 Ref Frames
Format settings, CABAC : Yes
Format settings, Reference : 12 frames
Codec ID : V_MPEG4/ISO/AVC
Duration : 1 h 28 min
Bit rate : 6 000 kb/s
Width : 1 280 pixels
Height : 534 pixels
Display aspect ratio : 2.40:1
Frame rate mode : Constant
Frame rate : 24.000 FPS
Color space : YUV
Chroma subsampling : 4:2:0
Bit depth : 8 bits
Scan type : Progressive
Bits/(Pixel*Frame) : 0.366
Stream size : 3.69 GiB (80%)
Writing library : x264 core 146 -from seleZen
Encoding settings : cabac=1 / ref=12 / deblock=1:-2:-2 / analyse=0x3:0x133 / me=umh / subme=11 / psy=1 / psy_rd=1.02:0.03 / mixed_ref=1 / me_range=48 / chroma_me=1 / trellis=2 / 8x8dct=1 / cqm=0 / deadzone=21,11 / fast_pskip=0 / chroma_qp_offset=-3 / threads=72 / lookahead_threads=4 / sliced_threads=0 / nr=0 / decimate=0 / interlaced=0 / bluray_compat=0 / constrained_intra=0 / bframes=10 / b_pyramid=2 / b_adapt=2 / b_bias=0 / direct=3 / weightb=1 / open_gop=0 / weightp=2 / keyint=240 / keyint_min=23 / scenecut=40 / intra_refresh=0 / rc_lookahead=50 / rc=2pass / mbtree=0 / bitrate=6000 / ratetol=1.0 / qcomp=0.60 / qpmin=0 / qpmax=51 / qpstep=4 / cplxblur=20.0 / qblur=0.5 / vbv_maxrate=50000 / vbv_bufsize=62500 / nal_hrd=none / filler=0 / ip_ratio=1.40 / pb_ratio=1.30 / aq=3:0.80
Language : English
Default : Yes
Forced : No

Audio #1
ID : 2
Format : AC-3
Format/Info : Audio Coding 3
Commercial name : Dolby Digital
Codec ID : A_AC3
Duration : 1 h 28 min
Bit rate mode : Constant
Bit rate : 448 kb/s
Channel(s) : 6 channels
Channel layout : L R C LFE Ls Rs
Sampling rate : 48.0 kHz
Frame rate : 31.250 FPS (1536 SPF)
Compression mode : Lossy
Stream size : 283 MiB (6%)
Title : Dub
Language : Russian
Service kind : Complete Main
Default : Yes
Forced : Yes

Audio #2
ID : 3
Format : E-AC-3
Format/Info : Enhanced AC-3
Commercial name : Dolby Digital Plus
Codec ID : A_EAC3
Duration : 1 h 28 min
Bit rate mode : Constant
Bit rate : 448 kb/s
Channel(s) : 6 channels
Channel layout : L R C LFE Ls Rs
Sampling rate : 48.0 kHz
Frame rate : 31.250 FPS (1536 SPF)
Compression mode : Lossy
Stream size : 283 MiB (6%)
Title : Dub
Language : Russian
Service kind : Complete Main
Default : No
Forced : No

Audio #3
ID : 4
Format : AC-3
Format/Info : Audio Coding 3
Commercial name : Dolby Digital
Codec ID : A_AC3
Duration : 1 h 28 min
Bit rate mode : Constant
Bit rate : 640 kb/s
Channel(s) : 6 channels
Channel layout : L R C LFE Ls Rs
Sampling rate : 48.0 kHz
Frame rate : 31.250 FPS (1536 SPF)
Compression mode : Lossy
Stream size : 404 MiB (9%)
Title : Original
Language : French
Service kind : Complete Main
Default : No
Forced : No

Text
ID : 5
Format : UTF-8
Codec ID : S_TEXT/UTF8
Codec ID/Info : UTF-8 Plain Text
Duration : 1 h 26 min
Bit rate : 62 b/s
Count of elements : 1070
Stream size : 39.7 KiB (0%)
Title : Full
Language : French
Default : No
Forced : No

Menu
00:00:00.000 : :Chapter 01
00:06:46.833 : :Chapter 02
00:14:34.542 : :Chapter 03
00:19:41.000 : :Chapter 04
00:29:16.333 : :Chapter 05
00:34:53.583 : :Chapter 06
00:42:21.833 : :Chapter 07
00:48:51.083 : :Chapter 08
00:56:51.333 : :Chapter 09
01:02:28.250 : :Chapter 10
01:09:22.042 : :Chapter 11
01:16:44.458 : :Chapter 12

piratbit.org



Скачать Мегрэ и таинственная девушка через торрент https://i120.fastpic.org/big/2022/0623/93/6ff472085af1ec90b9328b82aeb2fd93.jpg Скачать, смотреть онлайн Мегрэ и таинственная девушка бесплантно в хорошем качестве Описание: Однажды утром в самом центре Парижа находят тело девушки, одетой в вечернее платье. Рядом с красавицей не обнаружено ни сумочки, ... 7.8 10 4
Торрент: Зарегистрирован [2022-06-22 21:56] · скачан: 88 раз
Статус: √ проверено
Размер: 4.64 GB
Как cкачать? Как скачать Мегрэ и таинственная девушка через торрент | UTorrent

% Раздел Тема Автор DL S | L
Фильмы [HD 720p, 1080p] (Хороший звук DUB, MVO) [ 9.49 GB ] Мегрэ и таинственная девушка / Maigret [2022 BDRip 1080p] DUB [СиПиАй Филмз / CPI Films] bober100 Скачать
24 | 2
Фильмы 2022 [DVDrip, WEB-DLRip, HDrip] (DUB, MVO) [ 1.46 GB ] Мегрэ и таинственная девушка / Maigret [2022 BDRip] DUB [СиПиАй Филмз / CPI Films] bober100 Скачать
33 | 2
Фильмы 2022 [DVDrip, WEB-DLRip, HDrip] (DUB, MVO) [ 746 MB ] Мегрэ и таинственная девушка / Maigret [2022 BDRip] DUB [СиПиАй Филмз / CPI Films] bober100 Скачать
5 | 0
Фильмы (Blu-ray, BD-Remux, HDDVD) [ 24.83 GB ] Мегрэ и таинственная девушка / Maigret [2022 BD Remux 1080p] DUB [СиПиАй Филмз / CPI Films] bober100 Скачать
7 | 1

28-11-2019 20:33  

Отключить всю рекламу на сайте

24-06-2022 13:43 Мегрэ и таинственная девушка Скачать торрент  

Владимир Мегре и его книги про Настю прям)piratbit.org



24-06-2022 23:27 Мегрэ и таинственная девушка Скачать торрент  

Антонн писал(а):

Владимир Мегре и его книги про Настю прям)

ахах)) стало интересно че за влад мегре и при чем тут настя, загуглил, поржал. кусман рецензии:
автор (Владимир Мегре) плыл на корабле по реке через Сибирь. Возле глухой деревни он встретил красивую девушку - Анастасию, которая привела его в чащу леса, где она живёт. Там Владимир пробыл 3 дня. Анастасия забеременела от автора и рассказала ему своё мировоззрение. Анастасия раскрыла секрет создания летающей тарелки и придумала способ как очистить загрязнение в городах на 40%.
точно, сюжет один в один))piratbit.org



    Дорогой пользователь! Огромная просьба, поблагодарите релизера, оцените раздачу и оставьте свои комментарий, если Вы скачали Мегрэ и таинственная девушка через торрент бесплатно!
    Комментировать посты могут только пользователи прошедшие не сложную регистрацию
    Показать сообщения:    

    Мегрэ и таинственная девушка через торрент
    Скачать бесплатно Мегрэ и таинственная девушка
    Мегрэ и таинственная девушка скачать торрент
    Мегрэ и таинственная девушка смотреть онлайн
    Cкачать фильм Мегрэ и таинственная девушка бесплатно
    Мегрэ и таинственная девушка скачать торрент в хорошем качестве
    Мегрэ и таинственная девушка смотреть онлайн бесплатно в хорошем качестве


    Вы не можете начинать темы
    Вы не можете отвечать на сообщения
    Вы не можете редактировать свои сообщения
    Вы не можете удалять свои сообщения
    Вы не можете голосовать в опросах
    Вы не можете прикреплять файлы к сообщениям
    Вы можете скачивать файлы