Всегда рабочее зеркало без VPN и Proxy просто перед .vidak.icu напиши любое слово или цифру, Пример http://529w.vidak.icu

MVO

Лицензия

1 сезон

1

1 сезон

iTunes

1 сезон

13

1 сезон

Deluxe

pack

Рекомендуем

Пиратка

30

ВАЖНО

RePack

MK11

RePack

jed

RePack

fifa19

RePack

RDR2

RePack

NEED FOR SPEED™ PAYBACK

Кинопоиск HD

6 сезон

 Острые козырьки 6 сезон

Все сериалы

все сериалы на PB.wtf

RePack

FAR CRY 5

Anonymous, нам критически не хватает 2100 руб. на оплату серверов и переферии за МАЙ, помоги нам пожалуйста, вся надежда только на тебя. В благодарность мы отключим тебе всю рекламу на сайте!

×
  
Magnet ссылка

Женщина в состоянии развода / Сезон: 1 / Серии: 1-4 из 8 (Дмитрий Гайтян, Ольга Сафронова) [2019, Мелодрама, комедия, драма, WEB-DLRip] piratbit.org

Женщина в состоянии развода через торрент piratbit.org

Раздают: 2 [ 85 KB/s ]
Размер: 2.6 GB | Добавлен: 2 д. 2 ч. назад | Торрент скачан:16 раз
Смотреть онлайн Женщина в состоянии развода | Скачать    Ребята, помогите собрать деньги на оплату серверов!!!

23-06-2022 05:10 Женщина в состоянии развода Скачать торрент  

Женщина в состоянии развода
Год выпуска: 2019
Страна: Россия
Производство: ООО «Щука Фильм»
Жанр: Мелодрама, комедия, драма
Продолжительность: ~ 00:51:00
Субтитры: отсутствуют

Режиссер: Дмитрий Гайтян, Ольга Сафронова



В ролях: Мария Машкова, Анастасия Акатова, Екатерина Копанова, Евгений Антропов, Григорий Багров, Максим Лагашкин, Таисья Калинина, Даниил Эйдлин, Данила Якушев, Евгения Туркова, Артём Ткаченко, Анна Котова-Дерябина, Александр Мартынов, Евгения Бордзиловская, Дмитрий Тополь, Андрей Гаркунов, Алиса Вединяпина, Валерий Новиков, Клим Бердинский, Игнат Акрачков, Ольга Торопова, Ирина Туманцева, Юрий Круглов

Описание: Вере немного за тридцать. Она красива, умна и уже не замужем. Казалось бы, самое время насладиться этим моментом, осмотреться и никуда не спешить. Но, вот беда! Звучит приговор от медицины: «Если хотите родить ребенка, нужно поторопиться. Времени на это природа отвела вам совсем немного.» Почему с ней? Разве это должно быть так?

Качество: WEB-DLRip
Формат: AVI

Видео: XviD, 720x400, ~ 1650 Кбит/с, 0.229 bit/pixel, 25 Кадр/с
Аудио: 48.0 kHz, AC3 Dolby Digital, 2/0 (L,R) ch, ~ 192 kbps

Общее
Полное имя : D:\Zhenshchina.v.sostoyanii.razvoda.2019.WEB-DLRip.25Kuzmich\Zhenshchina.v.sostoyanii.razvoda.e01.WEB-DLRip.25Kuzmich.avi
Формат : AVI
Формат/Информация : Audio Video Interleave
Размер файла : 667 Мбайт
Продолжительность : 50 м. 21 с.
Общий поток : 1 852 Кбит/сек
Программа кодирования : VirtualDubMod 1.5.10.3 | www.virtualdub-fr.org || (build 2550/release)
Библиотека кодирования : VirtualDubMod build 2550/release

Видео
Идентификатор : 0
Формат : MPEG-4 Visual
Профиль формата : Advanced Simple@L5
Настройки формата : BVOP1
Параметр BVOP формата : 1
Параметр QPel формата : Нет
Параметр GMC формата : Без точки перехода
Параметр матрицы формата : Default (MPEG)
Идентификатор кодека : XVID
Идентификатор кодека/Подсказка : XviD
Продолжительность : 50 м. 21 с.
Битрейт : 1 650 Кбит/сек
Ширина : 720 пикселей
Высота : 400 пикселей
Соотношение сторон : 16:9
Частота кадров : 25,000 кадров/сек
Цветовое пространство : YUV
Субдискретизация насыщенности : 4:2:0
Битовая глубина : 8 бит
Тип развёртки : Прогрессивная
Метод сжатия : С потерями
Бит/(Пиксели*Кадры) : 0.229
Размер потока : 594 Мбайт (89%)
Библиотека кодирования : XviD 73

Аудио
Идентификатор : 1
Формат : AC-3
Формат/Информация : Audio Coding 3
Коммерческое название : Dolby Digital
Идентификатор кодека : 2000
Продолжительность : 50 м. 21 с.
Вид битрейта : Постоянный
Битрейт : 192 Кбит/сек
Каналы : 2 канала
Channel layout : L R
Частота : 48,0 КГц
Частота кадров : 31,250 кадров/сек (1536 SPF)
Метод сжатия : С потерями
Размер потока : 69,2 Мбайт (10%)
Выравнивание : Разделение по промежуткам
Продолжительность промежутка : 40 мс. (1,00 видеокадр)
Время предзагрузки промежутка : 500 мс.
Service kind : Complete Main

Внимание! Раздача ведётся путём добавления новых серий; при каждом добавлении создаётся новый торрент.
Чтобы начать докачку новой серии, пользователям необходимо сделать следующее:
1. Остановить скачивание;
2. Удалить старый торрент у себя из клиента (старые серии удалять не надо);
3. Скачать новый торрент и запустить его у себя в клиенте вместо старого, при этом указать клиенту путь в старую папку куда и должно происходить скачивание новых серий. Ваш клиент при этом должен произвести хеширование (проверку) старой папки и будет докачивать только те серии, которых у вас ещё нет. Старые серии при этом не удаляются, а продолжают раздаваться! Eсли вы уже удалили старые серии, то предотвратить повторную закачку старых серий можно, отжав галочку в соответствующих местах при запуске нового торрента.
piratbit.org



Скачать Женщина в состоянии развода через торрент https://i120.fastpic.org/big/2022/0609/bc/e95587b373c82f766d370d27bac9bdbc.jpg Скачать, смотреть онлайн Женщина в состоянии развода бесплантно в хорошем качестве Описание: Вере немного за тридцать. Она красива, умна и уже не замужем. Казалось бы, самое время насладиться этим моментом, осмотреться и ... 7 10 3
Торрент: Зарегистрирован [2022-06-23 05:10] · скачан: 16 раз
Статус: √ проверено
Размер: 2.6 GB
Как cкачать? Как скачать Женщина в состоянии развода через торрент | UTorrent

28-11-2019 20:33  

Отключить всю рекламу на сайте

    Дорогой пользователь! Огромная просьба, поблагодарите релизера, оцените раздачу и оставьте свои комментарий, если Вы скачали Женщина в состоянии развода через торрент бесплатно!
    Комментировать посты могут только пользователи прошедшие не сложную регистрацию
    Показать сообщения:    

    Женщина в состоянии развода через торрент
    Скачать бесплатно Женщина в состоянии развода
    Женщина в состоянии развода скачать торрент
    Женщина в состоянии развода смотреть онлайн
    Cкачать фильм Женщина в состоянии развода бесплатно
    Женщина в состоянии развода скачать торрент в хорошем качестве
    Женщина в состоянии развода смотреть онлайн бесплатно в хорошем качестве


    Вы не можете начинать темы
    Вы не можете отвечать на сообщения
    Вы не можете редактировать свои сообщения
    Вы не можете удалять свои сообщения
    Вы не можете голосовать в опросах
    Вы не можете прикреплять файлы к сообщениям
    Вы можете скачивать файлы