Доктор Стрэндж

Лицензия

Добыча

MVO

Дом дракона

1 сезон

Тор

Лицензия

Мэверик

Лицензия

Там, где раки поют

MVO

Властелин колец

1 сезон

Ultimate

pack

Рекомендуем

30

Repack

ВАЖНО

ВАЖНО

Ghostwire

RePack

jed

RePack

nioh2

RePack

RDR2

RePack

NEED FOR SPEED™ PAYBACK

RePack

скачать торрент

Кинопоиск HD

Острые козырьки 6 сезон

6 сезон

FAR CRY 6

RePack

скачать торрент

Лицензия

скачать торрент

MVO

1

1 сезон

скачать торрент

1 сезон

скачать торрент

Лицензия

  

Миньоны: Грювитация / Minions: The Rise of Gru (Кайл Балда, Брэд Эблесон, Джонатан дель Валь) [2022, Мультфильм, фантастика, комедия, криминал, приключения, семейный, BDRip 1080p] 2xMVO [Jaskier, TVShows]

Миньоны: Грювитация через торрент piratbit.org

Раздают: 11 [ 3 KB/s ] Качают: 1 [ 0 KB/s ]
Размер: 10.26 GB | Добавлен: 1 мес. 7 д. назад | Торрент скачан:291 раз
Смотреть онлайн Миньоны: Грювитация | Скачать   

03-08-2022 02:23 Миньоны: Грювитация Скачать торрент  

Миньоны: Грювитация
Minions: The Rise of Gru

Год выпуска: 2022
Страна: США
Выпущено: Illumination, Universal Pictures
Жанр: Мультфильм, фантастика, комедия, криминал, приключения, семейный
Продолжительность: 01:27:25
Перевод(ы):
#1: Профессиональный многоголосый | Jaskier
#2: Профессиональный многоголосый | TVShows
Субтитры: Русские (Forced, full), английские

Режиссер: Кайл Балда, Брэд Эблесон, Джонатан дель Валь

rating

В ролях: Стив Карелл, Пьер Коффан, Тараджи П. Хенсон, Жан-Клод Ван Дамм, Мишель Йео, Дольф Лундгрен, Люси Лоулесс, Дэнни Трехо, Алан Аркин, Джули Эндрюс

Описание: Миллион лет миньоны искали самого великого и ужасного предводителя, пока не встретили ЕГО. Знакомьтесь — Грю. Пусть он еще очень молод, но у него в планах по-настоящему гадкие дела, которые заставят планету содрогнуться.

Качество: BDRip 1080p
Формат: MKV

Видео: MPEG-4 AVC, 1920x804, 15.7 Mbit/s, 23.976 fps
Аудио #01: 48 kHz, AC3, 5.1, 448 Kbps | Профессиональный многоголосый | Jaskier | RUS |
Аудио #02: 48 kHz, AC3, 2.0, 192 Kbps | Профессиональный многоголосый | TVShows | RUS |
Аудио #03: 48 kHz, AC3, 5.1, 448 Kbps | Оригинал | ENG |
скриншот  скриншот  скриншот  скриншот  скриншот  скриншот  

General
Unique ID : 5986780312748122058809634318520893307 (0x481030EFD6F65F09E15513BB24F3F7B)
Complete name : F:\Video\Minions.The.Rise.of.Gru.2022.BDRip.1080p.seleZen.mkv
Format : Matroska
Format version : Version 4
File size : 10.3 GiB
Duration : 1 h 27 min
Overall bit rate : 16.8 Mb/s
Movie name : Minions The Rise of Gru 2022 from seleZen
Encoded date : UTC 2022-08-27 17:19:53
Writing application : mkvmerge v59.0.0 ('Shining Star') 64-bit
Writing library : libebml v1.4.2 + libmatroska v1.6.4

Video
ID : 1
Format : AVC
Format/Info : Advanced Video Codec
Format profile : High@L4.1
Format settings : CABAC / 5 Ref Frames
Format settings, CABAC : Yes
Format settings, Reference : 5 frames
Codec ID : V_MPEG4/ISO/AVC
Duration : 1 h 27 min
Bit rate : 15.7 Mb/s
Width : 1 920 pixels
Height : 804 pixels
Display aspect ratio : 2.40:1
Frame rate mode : Constant
Frame rate : 23.976 (24000/1001) FPS
Color space : YUV
Chroma subsampling : 4:2:0
Bit depth : 8 bits
Scan type : Progressive
Bits/(Pixel*Frame) : 0.425
Stream size : 9.60 GiB (94%)
Title : MTeam
Writing library : x264 core 157 r2938 2b00a84 TnP@MTeam Mod
Encoding settings : cabac=1 / ref=5 / deblock=1:-3:-3 / analyse=0x3:0x133 / me=umh / subme=10 / psy=1 / psy_rd=1.05:0.00 / mixed_ref=1 / me_range=32 / chroma_me=1 / trellis=2 / 8x8dct=1 / cqm=0 / deadzone=21,11 / fast_pskip=0 / chroma_qp_offset=-2 / threads=12 / lookahead_threads=2 / sliced_threads=0 / nr=0 / decimate=0 / interlaced=0 / bluray_compat=0 / constrained_intra=0 / bframes=8 / b_pyramid=2 / b_adapt=2 / b_bias=0 / direct=3 / weightb=1 / open_gop=0 / weightp=2 / keyint=250 / keyint_min=24 / scenecut=40 / intra_refresh=0 / rc_lookahead=250 / rc=crf / mbtree=0 / crf=16.8 / qcomp=0.60 / qpmin=0 / qpmax=69 / qpstep=4 / vbv_maxrate=62500 / vbv_bufsize=78125 / crf_max=0.0 / nal_hrd=none / filler=0 / ip_ratio=1.30 / pb_ratio=1.20 / aq=3:0.80
Language : English
Default : Yes
Forced : No
Color range : Limited
Color primaries : BT.709
Matrix coefficients : BT.709

Audio #1
ID : 2
Format : AC-3
Format/Info : Audio Coding 3
Commercial name : Dolby Digital
Codec ID : A_AC3
Duration : 1 h 27 min
Bit rate mode : Constant
Bit rate : 448 kb/s
Channel(s) : 6 channels
Channel layout : L R C LFE Ls Rs
Sampling rate : 48.0 kHz
Frame rate : 31.250 FPS (1536 SPF)
Compression mode : Lossy
Stream size : 280 MiB (3%)
Title : MVO [Jaskier]
Language : Russian
Service kind : Complete Main
Default : Yes
Forced : Yes

Audio #2
ID : 3
Format : AC-3
Format/Info : Audio Coding 3
Commercial name : Dolby Digital
Codec ID : A_AC3
Duration : 1 h 27 min
Bit rate mode : Constant
Bit rate : 192 kb/s
Channel(s) : 2 channels
Channel layout : L R
Sampling rate : 48.0 kHz
Frame rate : 31.250 FPS (1536 SPF)
Compression mode : Lossy
Stream size : 120 MiB (1%)
Title : MVO [TVShows]
Language : Russian
Service kind : Complete Main
Default : No
Forced : No

Audio #3
ID : 4
Format : AC-3
Format/Info : Audio Coding 3
Commercial name : Dolby Digital
Codec ID : A_AC3
Duration : 1 h 27 min
Bit rate mode : Constant
Bit rate : 448 kb/s
Channel(s) : 6 channels
Channel layout : L R C LFE Ls Rs
Sampling rate : 48.0 kHz
Frame rate : 31.250 FPS (1536 SPF)
Compression mode : Lossy
Stream size : 280 MiB (3%)
Title : Original
Language : English
Service kind : Complete Main
Default : No
Forced : No

Text #1
ID : 5
Format : UTF-8
Codec ID : S_TEXT/UTF8
Codec ID/Info : UTF-8 Plain Text
Duration : 1 h 12 min
Bit rate : 3 b/s
Frame rate : 0.005 FPS
Count of elements : 20
Stream size : 1.63 KiB (0%)
Title : Forced
Language : Russian
Default : No
Forced : No

Text #2
ID : 6
Format : UTF-8
Codec ID : S_TEXT/UTF8
Codec ID/Info : UTF-8 Plain Text
Duration : 1 h 19 min
Bit rate : 59 b/s
Frame rate : 0.170 FPS
Count of elements : 814
Stream size : 34.6 KiB (0%)
Title : Full
Language : Russian
Default : No
Forced : No

Text #3
ID : 7
Format : UTF-8
Codec ID : S_TEXT/UTF8
Codec ID/Info : UTF-8 Plain Text
Duration : 1 h 26 min
Bit rate : 44 b/s
Frame rate : 0.237 FPS
Count of elements : 1238
Stream size : 28.1 KiB (0%)
Title : Full
Language : English
Default : No
Forced : No

Text #4
ID : 8
Format : UTF-8
Codec ID : S_TEXT/UTF8
Codec ID/Info : UTF-8 Plain Text
Duration : 1 h 27 min
Bit rate : 69 b/s
Frame rate : 0.361 FPS
Count of elements : 1892
Stream size : 44.5 KiB (0%)
Title : SDH
Language : English
Default : No
Forced : No

Menu
00:00:00.000 : Chapter 01
00:02:21.224 : Chapter 02
00:07:37.749 : Chapter 03
00:12:47.350 : Chapter 04
00:17:50.194 : Chapter 05
00:20:45.995 : Chapter 06
00:26:20.204 : Chapter 07
00:29:01.323 : Chapter 08
00:33:33.094 : Chapter 09
00:38:49.118 : Chapter 10
00:43:23.434 : Chapter 11
00:48:59.436 : Chapter 12
00:50:26.732 : Chapter 13
00:55:39.294 : Chapter 14
01:00:00.639 : Chapter 15
01:05:32.720 : Chapter 16
01:07:40.640 : Chapter 17
01:10:57.795 : Chapter 18
01:16:25.831 : Chapter 19
01:19:30.766 : Chapter 20




Скачать Миньоны: Грювитация через торрент https://i120.fastpic.org/big/2022/0827/b7/55a3748b1bc8ac7eaf4f2bac144a3cb7.jpg Скачать, смотреть онлайн Миньоны: Грювитация бесплантно в хорошем качестве Описание: Миллион лет миньоны искали самого великого и ужасного предводителя, пока не встретили ЕГО. Знакомьтесь — Грю. Пусть он еще очень ... 9.6 10 25
Торрент: Зарегистрирован [2022-08-27 17:37] · скачан: 291 раз
Статус: √ проверено
Размер: 10.26 GB
Как cкачать? Как скачать Миньоны: Грювитация через торрент | UTorrent

% Раздел Тема Автор DL S | L
Иностранные мультфильмы [ 2.13 GB ] Миньоны: Грювитация / Minions: The rise of Gru | Jaskier | HDRip-AVC Lithuania Скачать
5 | 0
Зарубежные Мультфильмы (BDRip 1080p, 720p, Blu-ray, BD-Remux) [ 3.96 GB ] Миньоны: Грювитация / Minions: The Rise of Gru | Jaskier | 720p bober100 Скачать
14 | 0
Мультфильмы (48-60 fps) [ 2.91 GB ] Миньоны: Грювитация / Minions: The Rise of Gru | й | DLRip 720p / 60 FPS MVO slaventi-69 Скачать
30 | 0
Фильмы с украинским озвучиванием [ 1.89 GB ] Миньоны: Грювитация / Посіпаки: Становлення Лиходія / Minions: The Rise of Gru | DUB | DLRip-AVC killermax2013 Скачать
3 | 0
Иностранные мультфильмы [ 1.47 GB ] Миньоны: Грювитация / Minions: The Rise of Gru | Jaskier | DLRip bober100 Скачать
15 | 0



Последний раз редактировалось: bober100 (2022-08-27 17:42), всего редактировалось 4 раз(а)

28-11-2019 20:33  

Отключить вcю реклaмy на сайте

03-08-2022 13:08 Миньоны: Грювитация Скачать торрент  

еще описание:
О фильме: Они - самые древние существа на этой планете. За свою долгую историю миньоны успели повидать очень и очень многое, и Грю, ставший их последним хозяином и хорошим другом, стоял в самом конце списка злодеев, с которыми эти желтые милашки пытались ужиться. Изначальная потребность абсолютно всех миньонов - прислуживать тому, кто продал свою душу злу и каждый день готов совершать ужасные, недостойные поступки. Начав с динозавров, которые поедали себе подобных, миньоны постепенно переходили на все новых и новых существ. Доисторические люди сменились фараонами, а они, в свою очередь - такими известными личностями, как Наполеон и Дракула. Только вот абсолютно все они ушли в небытие, так и не став примером зла для миньонов и всех окружающих людей.На какое-то время армия дружных миньонов отказалась от поиска хозяина. Так и не отыскав достойного, они начали жить для себя. Но ни одно место в мире и никакие развлечения не могли подарить им покой и удовлетворение. Потому, когда спустя несколько лет один из команды предложил отправиться в Нью-Йорк, чтобы попытать счастья, остальные с радостью его поддержали. Миньоны уверены, что они смогут отыскать достойного, и именно он станет для них настоящим наставником!



    Дорогой пользователь! Огромная просьба, поблагодарите релизера, оцените раздачу и оставьте свои комментарий, если Вы скачали Миньоны: Грювитация через торрент бесплатно!!
    Комментировать посты могут только пользователи прошедшие не сложную регистрацию
    Показать сообщения:    


    Миньоны: Грювитация через торрент
    Скачать бесплатно Миньоны: Грювитация
    Миньоны: Грювитация скачать торрент
    Миньоны: Грювитация смотреть онлайн
    Cкачать фильм Миньоны: Грювитация бесплатно
    Миньоны: Грювитация скачать торрент в хорошем качестве
    Миньоны: Грювитация смотреть онлайн бесплатно в хорошем качестве
    Вы не можете начинать темы
    Вы не можете отвечать на сообщения
    Вы не можете редактировать свои сообщения
    Вы не можете удалять свои сообщения
    Вы не можете голосовать в опросах
    Вы не можете прикреплять файлы к сообщениям
    Вы можете скачивать файлы