Доктор Стрэндж

Лицензия

Добыча

MVO

Дом дракона

1 сезон

Тор

Лицензия

Мэверик

Лицензия

Там, где раки поют

MVO

Властелин колец

1 сезон

Ultimate

pack

Рекомендуем

30

Repack

ВАЖНО

ВАЖНО

Ghostwire

RePack

jed

RePack

nioh2

RePack

RDR2

RePack

NEED FOR SPEED™ PAYBACK

RePack

скачать торрент

Кинопоиск HD

Острые козырьки 6 сезон

6 сезон

FAR CRY 6

RePack

скачать торрент

Лицензия

скачать торрент

MVO

1

1 сезон

скачать торрент

1 сезон

скачать торрент

Лицензия

  

Удача / Luck (Пегги Холмс) [2022 г., мультфильм, фэнтези, комедия, приключения, семейный, WEB-DLRip 720p / 60 FPS, Дубляж] от R.G. HD-Films

Удача через торрент piratbit.org

Раздают: 5 [ 0 KB/s ] Качают: 1 [ 0 KB/s ]
Размер: 4.4 GB | Добавлен: 1 мес. 26 д. назад | Торрент скачан:250 раз
Смотреть онлайн Удача | Скачать   

08-08-2022 09:58 Удача Скачать торрент  

Удача / Luck
Год выпуска: 2022
Страна: США, Испания
Жанр: мультфильм, фэнтези, комедия, приключения, семейный
Продолжительность: 01:45:17
Перевод: Дубляж | Невафильм
Субтитры: Русские (Forced-вшитые, Full, SDH), украинские, английские (Full, SDH), иврит

Режиссер: Пегги Холмс

Бюджет: $140 000 000

rating

В ролях: Эва Ноблесада, Саймон Пегг, Джейн Фонда, Вупи Голдберг, Флула Борг, Лил Рел Ховери, Колин О`Донохью, Джон Ратценбергер, Аделин Спун

Описание: Сэм Гринфилд — самая невезучая девочка в мире! Внезапно оказавшись в невиданной Стране Удачи, она объединяется с населяющими её волшебными существами, чтобы вернуть своё везение.

Качество: WEB-DLRip 720p / 60 FPS
Формат: MKV
Видео кодек: H.264
Аудио кодек: AC3
Видео: x264, 1280 x 688 ( 1,85:1 ), 5592 kbps, 60,000 fps, ( 0.106 bpp)
Аудио#1: Русский, AC-3, 48.0 KHz, 6 ch, 384 Kbps Dub (Невафильм)
Релиз от: Автор рипа: slaventi-69
x264 [info]: using cpu capabilities: MMX2 SSE2Fast SSSE3 SSE4.2 AVX AVX2 FMA3 LZCNT BMI1 BMI2
x264 [info]: profile High, level 4.1
x264 [info]: frame I:1643 Avg QP:14.94 size:129791
x264 [info]: frame P:95012 Avg QP:16.02 size: 25379
x264 [info]: frame B:282416 Avg QP:18.12 size: 6345
x264 [info]: consecutive B-frames: 1.7% 7.4% 14.5% 15.9% 35.4% 25.1%

Общее
Уникальный идентификатор : 131584542503485266566411480859955660524 (0x62FE42D4FF8ED938ADE860483FDF86EC)
Полное имя : G:\60 FPS\Luck.(2022).WEB-DLRip.720p.(60 Fps).mkv
Формат : Matroska
Версия формата : Version 4
Размер файла : 4,40 Гбайт
Продолжительность : 1 ч. 45 м.
Общий поток : 5981 Кбит/сек
Название фильма : Удача / Luck (2022) WEB-DLRip 720p (60 Fps)
Дата кодирования : UTC 2022-08-08 09:11:44
Программа кодирования : mkvmerge v69.0.0 ('Day And Age') 64-bit
Библиотека кодирования : libebml v1.4.2 + libmatroska v1.6.4

Видео
Идентификатор : 1
Формат : AVC
Формат/Информация : Advanced Video Codec
Профиль формата : High@L4.1
Настройки формата : CABAC / 9 Ref Frames
Параметр CABAC формата : Да
Параметр RefFrames формата : 9 кадров
Идентификатор кодека : V_MPEG4/ISO/AVC
Продолжительность : 1 ч. 45 м.
Битрейт : 5592 Кбит/сек
Ширина : 1280 пикселей
Высота : 688 пикселей
Соотношение сторон : 1,85:1
Режим частоты кадров : Постоянный
Частота кадров : 60,000 кадров/сек
Цветовое пространство : YUV
Субдискретизация насыщенности : 4:2:0
Битовая глубина : 8 бит
Тип развёртки : Прогрессивная
Бит/(Пиксели*Кадры) : 0.106
Размер потока : 4,11 Гбайт (93%)
Заголовок : slaventi-69 ( R.G. HD-Films | 60 fps )
Библиотека кодирования : x264 core 130 r2273 b3065e6
Настройки программы : cabac=1 / ref=9 / deblock=1:-3:-3 / analyse=0x3:0x133 / me=umh / subme=9 / psy=1 / psy_rd=1.00:0.00 / mixed_ref=1 / me_range=32 / chroma_me=1 / trellis=2 / 8x8dct=1 / cqm=0 / deadzone=21,11 / fast_pskip=0 / chroma_qp_offset=-2 / threads=8 / lookahead_threads=4 / sliced_threads=0 / nr=0 / decimate=1 / interlaced=0 / bluray_compat=0 / constrained_intra=0 / bframes=5 / b_pyramid=2 / b_adapt=2 / b_bias=0 / direct=2 / weightb=1 / open_gop=0 / weightp=2 / keyint=600 / keyint_min=23 / scenecut=40 / intra_refresh=0 / rc=crf / mbtree=0 / crf=15.7 / qcomp=0.60 / qpmin=0 / qpmax=69 / qpstep=4 / ip_ratio=1.40 / pb_ratio=1.30 / aq=1:1.00
Язык : English
Default : Да
Forced : Нет

Аудио
Идентификатор : 2
Формат : AC-3
Формат/Информация : Audio Coding 3
Коммерческое название : Dolby Digital
Идентификатор кодека : A_AC3
Продолжительность : 1 ч. 45 м.
Вид битрейта : Постоянный
Битрейт : 384 Кбит/сек
Каналы : 6 каналов
Channel layout : L R C LFE Ls Rs
Частота : 48,0 КГц
Частота кадров : 31,250 кадров/сек (1536 SPF)
Битовая глубина : 16 бит
Метод сжатия : С потерями
Размер потока : 289 Мбайт (6%)
Заголовок : Dub ( Невафильм )
Язык : Russian
ServiceKind/String : Complete Main
Default : Да
Forced : Нет

Текст #1
Идентификатор : 3
Формат : UTF-8
Идентификатор кодека : S_TEXT/UTF8
Идентификатор кодека/Информация : UTF-8 Plain Text
Продолжительность : 1 ч. 44 м.
Битрейт : 103 бит/сек
ElementCount : 1401
Размер потока : 78,9 Кбайт (0%)
Язык : Russian
Default : Нет
Forced : Нет

Текст #2
Идентификатор : 4
Формат : UTF-8
Идентификатор кодека : S_TEXT/UTF8
Идентификатор кодека/Информация : UTF-8 Plain Text
Продолжительность : 1 ч. 36 м.
Битрейт : 126 бит/сек
ElementCount : 1626
Размер потока : 88,7 Кбайт (0%)
Заголовок : SDH
Язык : Russian
Default : Нет
Forced : Нет

Текст #3
Идентификатор : 5
Формат : UTF-8
Идентификатор кодека : S_TEXT/UTF8
Идентификатор кодека/Информация : UTF-8 Plain Text
Продолжительность : 1 ч. 44 м.
Битрейт : 102 бит/сек
ElementCount : 1404
Размер потока : 78,2 Кбайт (0%)
Язык : Ukrainian
Default : Нет
Forced : Нет

Текст #4
Идентификатор : 6
Формат : UTF-8
Идентификатор кодека : S_TEXT/UTF8
Идентификатор кодека/Информация : UTF-8 Plain Text
Продолжительность : 1 ч. 35 м.
Битрейт : 69 бит/сек
ElementCount : 1371
Размер потока : 48,8 Кбайт (0%)
Язык : English
Default : Нет
Forced : Нет

Текст #5
Идентификатор : 7
Формат : UTF-8
Идентификатор кодека : S_TEXT/UTF8
Идентификатор кодека/Информация : UTF-8 Plain Text
Продолжительность : 1 ч. 36 м.
Битрейт : 78 бит/сек
ElementCount : 1616
Размер потока : 55,5 Кбайт (0%)
Заголовок : SDH
Язык : English
Default : Нет
Forced : Нет

Текст #6
Идентификатор : 8
Формат : UTF-8
Идентификатор кодека : S_TEXT/UTF8
Идентификатор кодека/Информация : UTF-8 Plain Text
Продолжительность : 1 ч. 44 м.
Битрейт : 87 бит/сек
ElementCount : 1401
Размер потока : 66,5 Кбайт (0%)
Язык : Hebrew
Default : Нет
Forced : Нет

Просьба к переливающим на другие сайты, в оформлении указывайте пожалуйста авторство группы R.G. HD-Films



Скачать Удача через торрент https://i120.fastpic.org/big/2022/0808/7e/4f3b97f6f2e3203e45ac5e4dfa3fb97e.jpg Скачать, смотреть онлайн Удача бесплантно в хорошем качестве Описание: Сэм Гринфилд — самая невезучая девочка в мире! Внезапно оказавшись в невиданной Стране Удачи, она объединяется с населяющими её ... 10 10 16
Info! Золотая раздача, скачанное не засчитывается.
Торрент: Зарегистрирован [2022-08-08 09:58] · скачан: 250 раз
Статус: √ проверено
Размер: 4.4 GB
Как cкачать? Как скачать Удача через торрент | UTorrent

% Раздел Тема Автор DL S | L
Зарубежные Мультфильмы (WEB-DL 720p, 1080p) [ 8.97 GB ] Удача / Luck | DUB | 1080p bober100 Скачать
12 | 0
Иностранные мультфильмы [ 2.24 GB ] Удача / Luck | DUB | DLRip-AVC bober100 Скачать
3 | 0
Иностранные мультфильмы [ 1.46 GB ] Удача / Luck | DUB | DLRip bober100 Скачать
8 | 0

28-11-2019 20:33  

Отключить вcю реклaмy на сайте

    Дорогой пользователь! Огромная просьба, поблагодарите релизера, оцените раздачу и оставьте свои комментарий, если Вы скачали Удача через торрент бесплатно!!
    Комментировать посты могут только пользователи прошедшие не сложную регистрацию
    Показать сообщения:    


    Удача через торрент
    Скачать бесплатно Удача
    Удача скачать торрент
    Удача смотреть онлайн
    Cкачать фильм Удача бесплатно
    Удача скачать торрент в хорошем качестве
    Удача смотреть онлайн бесплатно в хорошем качестве
    Вы не можете начинать темы
    Вы не можете отвечать на сообщения
    Вы не можете редактировать свои сообщения
    Вы не можете удалять свои сообщения
    Вы не можете голосовать в опросах
    Вы не можете прикреплять файлы к сообщениям
    Вы можете скачивать файлы