Доктор Стрэндж

Лицензия

Добыча

MVO

Дом дракона

1 сезон

Тор

Лицензия

Мэверик

Лицензия

Там, где раки поют

MVO

Властелин колец

1 сезон

Ultimate

pack

Рекомендуем

30

Repack

ВАЖНО

ВАЖНО

Ghostwire

RePack

jed

RePack

nioh2

RePack

RDR2

RePack

NEED FOR SPEED™ PAYBACK

RePack

скачать торрент

Кинопоиск HD

Острые козырьки 6 сезон

6 сезон

FAR CRY 6

RePack

скачать торрент

Лицензия

скачать торрент

MVO

1

1 сезон

скачать торрент

1 сезон

скачать торрент

Лицензия

  

Самая опасная игра / The Most Dangerous Game (Джастин Ли) [2022 г., Триллер, WEBRip] MVO (AlphaProject)

Самая опасная игра через торрент piratbit.org

Раздают: 1 [ 0 KB/s ]
Размер: 1.46 GB | Добавлен: 1 мес. 26 д. назад | Торрент скачан:136 раз
Смотреть онлайн Самая опасная игра | Скачать   

08-08-2022 12:17 Самая опасная игра Скачать торрент  

Самая опасная игра / The Most Dangerous Game
Год выпуска: 2022
Страна: США / Mini Nation Pictures, Quiet On Set, Charach Productions
Жанр: Триллер
Продолжительность: 01:33:10
Перевод: Многоголосый любительский (AlphaProject)

Режиссер: Джастин Ли

Премьера в мире: 5 августа 2022

rating

В ролях: Крис Тамбурелло, Каспер Ван Дин, Джадд Нельсон, Рэнди Чарач, Том Беренджер, Брюс Дерн, Элисса Даулинг, Эдвард Финлэй, Кевин Портер

Описание: Отец и сын потерпели кораблекрушение возле отдаленного острова, где попали в ловушку трофейной охоты, организованной таинственным владельцем острова, безжалостным человеком, который использует землю в качестве элитного охотничьего заповедника для выслеживания самой опасной дичи из всех: человека.

Доп. информация: Присутствует баннер.

Качество: WEBRip
Формат: AVI
Видео кодек: XviD
Аудио кодек: AC3
Видео: 720x304 (2.37:1), 29.970 fps, XviD build 73 ~1973 kbps avg, 0.30 bit/pixel
Аудио#1: 48 kHz, AC3 Dolby Digital, 2/0 (L,R) ch, ~256 kbps
скриншот  скриншот  
скриншот  
скриншот  





Общее
Полное имя : E:\торенты\zagrujehhie\The.Most.Dangerous.Game.2022.WEB-DLRip —cc.avi
Формат : AVI
Формат/Информация : Audio Video Interleave
Размер файла : 1,46 Гбайт
Продолжительность : 1 ч. 33 м.
Общий поток : 2 241 Кбит/сек
Программа кодирования : VirtualDubMod 1.5.10.3 | www.virtualdub-fr.org || (build 2550/release)
Библиотека кодирования : VirtualDubMod build 2550/release

Видео
Идентификатор : 0
Формат : MPEG-4 Visual
Профиль формата : Advanced Simple@L5
Настройки формата : BVOP1 / Custom Matrix
Параметр BVOP формата : 1
Параметр QPel формата : Нет
Параметр GMC формата : Без точки перехода
Параметр матрицы формата : Выборочная
Идентификатор кодека : XVID
Идентификатор кодека/Подсказка : XviD
Продолжительность : 1 ч. 33 м.
Битрейт : 1 973 Кбит/сек
Ширина : 720 пикселей
Высота : 304 пикселя
Соотношение сторон : 2,35:1
Частота кадров : 29,970 (30000/1001) кадров/сек
Цветовое пространство : YUV
Субдискретизация насыщенности : 4:2:0
Битовая глубина : 8 бит
Тип развёртки : Прогрессивная
Метод сжатия : С потерями
Бит/(Пиксели*Кадры) : 0.301
Размер потока : 1,28 Гбайт (88%)
Библиотека кодирования : XviD 73

Аудио
Идентификатор : 1
Формат : AC-3
Формат/Информация : Audio Coding 3
Коммерческое название : Dolby Digital
Идентификатор кодека : 2000
Продолжительность : 1 ч. 33 м.
Вид битрейта : Постоянный
Битрейт : 256 Кбит/сек
Каналы : 2 канала
Channel layout : L R
Частота : 48,0 КГц
Частота кадров : 31,250 кадров/сек (1536 SPF)
Метод сжатия : С потерями
Размер потока : 171 Мбайт (11%)
Выравнивание : Разделение по промежуткам
Продолжительность промежутка : 33 мс. (1,00 видеокадр)
Время предзагрузки промежутка : 500 мс.
Service kind : Complete Main




Скачать Самая опасная игра через торрент https://i120.fastpic.org/big/2022/0808/b5/5b52880065ee0ad713c9e6050e147db5.jpg Скачать, смотреть онлайн Самая опасная игра бесплантно в хорошем качестве Описание: Отец и сын потерпели кораблекрушение возле отдаленного острова, где попали в ловушку трофейной охоты, организованной таинственным ... 9.7 10 7
Торрент: Зарегистрирован [2022-08-08 12:17] · скачан: 136 раз
Статус: T временная
Размер: 1.46 GB
Как cкачать? Как скачать Самая опасная игра через торрент | UTorrent

% Раздел Тема Автор DL S | L
T Фильмы 2022 [DVDrip, WEB-DLRip, HDrip] (DUB, MVO) [ 1.68 GB ] Самая опасная игра / The Most Dangerous Game | MVO | DLRip-AVC Lithuania Скачать
3 | 0



Последний раз редактировалось: jump88 (2022-08-08 13:16), всего редактировалось 3 раз(а)

28-11-2019 20:33  

Отключить вcю реклaмy на сайте

    Дорогой пользователь! Огромная просьба, поблагодарите релизера, оцените раздачу и оставьте свои комментарий, если Вы скачали Самая опасная игра через торрент бесплатно!!
    Комментировать посты могут только пользователи прошедшие не сложную регистрацию
    Показать сообщения:    


    Самая опасная игра через торрент
    Скачать бесплатно Самая опасная игра
    Самая опасная игра скачать торрент
    Самая опасная игра смотреть онлайн
    Cкачать фильм Самая опасная игра бесплатно
    Самая опасная игра скачать торрент в хорошем качестве
    Самая опасная игра смотреть онлайн бесплатно в хорошем качестве
    Вы не можете начинать темы
    Вы не можете отвечать на сообщения
    Вы не можете редактировать свои сообщения
    Вы не можете удалять свои сообщения
    Вы не можете голосовать в опросах
    Вы не можете прикреплять файлы к сообщениям
    Вы можете скачивать файлы